<?xml version="1.0" standalone="no"?>
<!DOCTYPE svg PUBLIC "-//W3C//DTD SVG 1.1//EN" "http://www.w3.org/Graphics/SVG/1.1/DTD/svg11.dtd" >
<svg xmlns="http://www.w3.org/2000/svg">
<metadata>Generated by IcoMoon</metadata>
<defs>
<font id="Wpzoom" horiz-adv-x="1024">
<font-face units-per-em="1024" ascent="960" descent="-64" />
<missing-glyph horiz-adv-x="1024" />
<glyph unicode="&#x20;" horiz-adv-x="512" d="" />
<glyph unicode="&#xe900;" glyph-name="facebook" d="M0 21.334c0-47.146 38.186-85.334 85.334-85.334h853.334c47.146 0 85.334 38.186 85.334 85.334l-0.002 853.332c0 47.146-38.186 85.334-85.334 85.334h-853.332c-47.148 0-85.334-38.186-85.334-85.334v-853.332zM533.334 64v341.334h-85.334v128h85.334c0 219.946 9.364 234.666 277.332 234.666v-128c-141.226 0-128-7.894-128-106.666h128v-128h-128v-341.334h-149.332z" />
<glyph unicode="&#xe901;" glyph-name="twitter-old" d="M0 21.334c0-47.146 38.186-85.334 85.334-85.334h853.334c47.146 0 85.334 38.186 85.334 85.334l-0.002 853.332c0 47.146-38.186 85.334-85.334 85.334h-853.332c-47.148 0-85.334-38.186-85.334-85.334v-853.332zM661.334 426.666h-213.334v-64c0-23.466 19.2-42.666 42.666-42.666h170.666c47.146 0 85.334-38.186 85.334-85.334s-38.186-85.334-85.334-85.334l-213.332 0.002c-94.294 0-170.666 76.374-170.666 170.666v362.666c0 47.146 38.186 85.334 85.334 85.334s85.334-38.186 85.334-85.334v-85.334h213.334c47.146 0 85.334-38.186 85.334-85.334s-38.19-85.332-85.336-85.332z" />
<glyph unicode="&#xe902;" glyph-name="share" d="M0 21.334c0-47.146 38.186-85.334 85.334-85.334h853.334c47.146 0 85.334 38.186 85.334 85.334l-0.002 853.332c0 47.146-38.186 85.334-85.334 85.334h-853.332c-47.148 0-85.334-38.186-85.334-85.334v-853.332zM192 448c0 70.614 57.386 128 128 128 29.44 0 56.534-10.026 78.080-26.454l178.326 80.854c-0.406 3.2-0.406 6.4-0.406 9.6 0 70.614 57.366 128 128 128s128-57.386 128-128-57.366-128-128-128c-32.854 0-62.934 12.374-85.546 32.854l-171.946-78.080c1.066-6.188 1.492-12.374 1.492-18.774s-0.426-12.586-1.494-18.774l171.946-77.866c22.614 20.266 52.694 32.64 85.548 32.64 70.634 0 128-57.366 128-128s-57.366-128-128-128-128 57.366-128 128c0 3.2 0 6.4 0.426 9.6l-178.326 81.066c-21.566-16.64-48.66-26.666-78.1-26.666-70.614 0-128 57.366-128 128z" />
<glyph unicode="&#xe903;" glyph-name="feed" d="M0 21.334c0-47.146 38.186-85.334 85.334-85.334h853.334c47.146 0 85.334 38.186 85.334 85.334l-0.002 853.332c0 47.146-38.186 85.334-85.334 85.334h-853.332c-47.148 0-85.334-38.186-85.334-85.334v-853.332zM832 202.666c0-29.44-23.894-53.334-53.334-53.334s-53.332 23.894-53.332 53.334c0 241.494-195.862 437.334-437.334 437.334-29.44 0-53.334 23.894-53.334 53.334s23.894 53.334 53.334 53.334c158.294 0 288.214-54.614 390.186-156.586 104.512-104.536 153.814-234.242 153.814-387.416zM640 202.666c0-29.44-23.894-53.334-53.334-53.334s-53.332 23.894-53.332 53.334c0 135.468-109.868 245.334-245.334 245.334-29.44 0-53.334 23.894-53.334 53.334s23.894 53.334 53.334 53.334c194.346-0.002 352-157.676 352-352.002zM234.666 245.334c0 53.12 42.88 96 96 96s96-42.88 96-96-42.88-96-96-96-96 42.88-96 96z" />
<glyph unicode="&#xe904;" glyph-name="bird" d="M938.858 576h63.786c5.546 0 11.094 2.134 15.36 6.186 8.32 8.32 8.32 21.974 0 30.294-5.782 5.546-77.226 91.52-77.226 91.52s71.466 85.974 77.226 91.52c8.32 8.32 8.32 21.974 0 30.294-4.266 4.052-9.812 6.186-15.358 6.186h-102.634c-46.698 76.8-131.414 128-227.84 128-147.2 0-266.666-119.466-266.666-266.666 0-88.32-71.68-160-160-160h-203.074c-23.488 0-42.666-19.2-42.666-42.666l0.214-5.76c18.986-185.6 148.886-339.2 320.214-396.586v-98.986c0-29.44 23.894-53.334 53.334-53.334s53.334 23.894 53.334 53.334v76.586c14.080-1.28 28.374-1.92 42.666-1.92s28.586 0.64 42.666 1.92v-76.586c0-29.44 23.894-53.334 53.334-53.334s53.334 23.894 53.334 53.334v98.986c186.026 62.314 320 238.080 320 445.014l-0.004 42.664zM682.858 778.666c0 29.44 23.894 53.334 53.334 53.334s53.334-23.894 53.334-53.334-23.894-53.334-53.334-53.334-53.334 23.894-53.334 53.334zM517.312 463.786c30.080-65.302 18.326-145.088-35.414-198.826-52.906-53.12-131.414-65.302-196.054-36.48l-6.826 3.626c-13.654 7.254-22.806 21.546-22.806 37.974 0 12.586 5.334 23.894 13.866 31.786 4.246 3.84 176.426 176.214 176.426 176.214 16.854 16.854 44.16 16.854 60.8 0 2.56-2.56 4.906-5.334 6.634-8.32l3.374-5.974z" />
<glyph unicode="&#xe905;" glyph-name="chat" d="M0 256c0-47.146 38.186-85.334 85.334-85.334h128v-131.626c0-23.68 19.2-42.666 42.666-42.666 11.968 0 22.806 4.906 30.506 12.8l161.494 161.492h469.334c47.146 0 85.334 38.186 85.334 85.334l-0.002 533.334c0 47.146-38.186 85.334-85.334 85.334l-831.998-0.002c-47.148 0-85.334-38.186-85.334-85.332v-533.334zM256 501.334c0 29.44 23.894 53.334 53.334 53.334s53.334-23.894 53.334-53.334-23.894-53.334-53.334-53.334-53.334 23.894-53.334 53.334zM448 501.334c0 29.44 23.894 53.334 53.334 53.334s53.334-23.894 53.334-53.334-23.894-53.334-53.334-53.334-53.334 23.894-53.334 53.334zM640 501.334c0 29.44 23.894 53.334 53.334 53.334s53.334-23.894 53.334-53.334-23.894-53.334-53.334-53.334-53.334 23.894-53.334 53.334z" />
<glyph unicode="&#xe906;" glyph-name="envelope" d="M0 149.334c0-47.146 38.186-85.334 85.334-85.334h853.334c47.146 0 85.334 38.186 85.334 85.334l-0.002 576c0 47.146-38.186 85.334-85.334 85.334l-853.332-0.002c-47.146 0-85.334-38.186-85.334-85.334v-575.998zM314.026 436.694l-195.2 196.48c-16.192 16.214-16.192 42.454 0 58.666 16.234 16.214 42.474 16.214 58.666 0l311.468-311.872c12.586-12.374 33.302-12.374 45.674 0l311.872 311.872c16.214 16.214 42.454 16.214 58.666 0 16.214-16.214 16.214-42.454 0-58.666l-195.414-196.48 195.414-195.178c16.214-16.214 16.214-42.454 0-58.666s-42.454-16.214-58.666 0l-195.2 194.986c0 0-60.992-62.080-72.086-73.174-17.3-16.876-41.194-27.328-67.22-27.328-26.454 0-50.346 10.666-67.626 27.968-11.306 11.094-71.894 72.512-71.894 72.512l-195.008-194.986c-16.192-16.214-42.432-16.214-58.666 0-16.192 16.214-16.192 42.454 0 58.666l195.22 195.2z" />
<glyph unicode="&#xe907;" glyph-name="envelope1" d="M1024 512.214c0 29.866-12.374 56.96-32.214 76.374l-404.052 340.052c-41.814 41.814-109.654 41.814-151.466 0l-404.054-340.054c-19.84-19.412-32.214-46.506-32.214-76.372v-490.88c0-47.146 38.186-85.334 85.334-85.334h853.334c47.146 0 85.334 38.186 85.334 85.334l-0.002 490.88zM217.6 597.334h588.8c26.026 0 46.934-20.906 46.934-46.934v-81.066c-0.214-10.24-4.266-20.266-12.16-28.16l-131.414-132.48 195.414-195.178c16.214-16.214 16.214-42.454 0-58.666s-42.454-16.214-58.666 0l-201.174 201.15h-267.094l-200.746-201.174c-16.214-16.214-42.454-16.214-58.666 0-16.214 16.214-16.214 42.454 0 58.666l195.2 195.178-131.2 132.48c-8.534 8.534-12.586 19.626-12.16 30.934l-0.002 78.316c0 26.026 20.908 46.934 46.934 46.934z" />
<glyph unicode="&#xe908;" glyph-name="phone" d="M512 960c-182.4 0-365.226-32.64-431.574-97.706-55.040-53.974-73.386-149.334-79.574-209.706 0 0-0.854-5.974-0.854-8.534 0-23.68 19.2-42.666 42.666-42.666 2.774 0 105.386 8.32 167.254 13.44 1.494 0.214 2.986 0.426 4.48 0.854 23.040 0.64 41.6 19.414 41.6 42.666l0.214 84.054c0.002 26.024 21.122 46.932 47.148 46.932h417.258c26.048 0 47.168-20.908 47.168-46.934l0.214-84.054c0-23.254 18.56-42.026 41.6-42.666 1.472-0.426 2.986-0.64 4.48-0.854 61.866-5.12 164.48-13.44 167.254-13.44 23.466 0 42.666 18.986 42.666 42.666 0 2.56-0.854 8.534-0.854 8.534-6.186 60.374-24.512 155.734-79.552 209.706-66.368 65.068-249.194 97.708-431.594 97.708zM512 405.334c-47.146 0-85.334-38.186-85.334-85.334s38.186-85.334 85.334-85.334 85.334 38.186 85.334 85.334-38.188 85.334-85.334 85.334zM448 597.334v53.334c0 29.44-23.894 53.334-53.334 53.334s-53.332-23.896-53.332-53.336v-53.332l-287.788-307.414c-19.84-19.414-32.212-46.506-32.212-76.374v-85.546c0-47.146 38.186-85.334 85.334-85.334h21.334v-53.334c-0.002-29.438 23.892-53.332 53.332-53.332s53.334 23.894 53.334 53.334l-0.002 53.332h554.666v-53.334c0-29.44 23.894-53.334 53.334-53.334s53.334 23.894 53.334 53.334v53.334h21.334c47.146 0 85.334 38.186 85.334 85.334v85.546c0 29.866-12.374 56.96-32.214 76.374l-287.788 307.414v53.334c0 29.44-23.894 53.334-53.334 53.334s-53.332-23.896-53.332-53.336v-53.332h-128zM512 490.666c94.294 0 170.666-76.374 170.666-170.666s-76.374-170.666-170.666-170.666-170.666 76.374-170.666 170.666 76.372 170.666 170.666 170.666z" />
<glyph unicode="&#xe909;" glyph-name="phone1" d="M513.664 1.728c87.446-87.68 229.12-87.68 316.566 0 54.422 54.4 75.094 129.706 61.674 200.106 23.040 11.734 43.712 25.386 60.992 38.186 1.92 1.494 10.454 7.466 12.586 9.174 9.622 7.894 15.786 19.84 15.786 33.302 0 12.8-5.546 24.32-14.506 32l-176 145.066c-7.254 5.974-16.618 9.6-26.88 9.6-11.542 0-21.994-4.48-29.674-11.734-3.008-2.986-29.418-30.080-29.418-30.080-18.368-18.346-48-18.346-66.368 0l-179.606 179.84c-18.346 18.346-18.346 48.214 0 66.56l29.226 29.226c7.68 7.68 12.16 18.346 12.16 29.846 0 11.52-4.48 21.782-11.734 29.44l-150.826 182.186c-7.894 9.386-19.84 15.574-33.066 15.574-14.080 0-26.454-6.826-34.346-17.28l-2.56-3.414c-32.854-44.374-75.734-114.774-75.734-180.906 0-182.186 406.208-587.734 586.666-587.734 3.414 0 6.826 0.214 10.048 0.214 3.2-33.494-8.128-68.032-33.706-93.866-45.866-45.846-120.128-45.846-165.994 0l-294.592 302.72c-62.506 62.506-163.626 62.506-226.134 0-62.506-62.506-62.506-163.626 0-226.134l96.64-95.36c20.906-20.714 54.614-20.714 75.52 0 20.694 20.886 20.694 54.614 0 75.498l-96.854 95.168c-20.694 20.886-20.694 54.614 0 75.498 20.906 20.714 54.614 20.714 75.52 0l294.614-302.696z" />
<glyph unicode="&#xe90a;" glyph-name="phone2" d="M149.334 21.334c0-47.146 38.186-85.334 85.334-85.334h533.334c47.146 0 85.334 38.186 85.334 85.334l-0.002 885.332c0 29.44-23.894 53.334-53.334 53.334s-53.334-23.894-53.334-53.334v-53.332h-512c-47.146 0-85.332-38.188-85.332-85.334v-746.666zM302.934 746.666h396.8c26.026 0 46.934-20.906 46.934-46.934v-226.134c0-26.026-20.906-46.934-46.934-46.934l-396.8 0.002c-26.026 0-46.934 20.906-46.934 46.934v226.134c0 26.026 20.906 46.932 46.934 46.932zM256 288c0 29.44 23.894 53.334 53.334 53.334s53.334-23.894 53.334-53.334-23.894-53.334-53.334-53.334-53.334 23.894-53.334 53.334zM448 288c0 29.44 23.894 53.334 53.334 53.334s53.334-23.894 53.334-53.334-23.894-53.334-53.334-53.334-53.334 23.894-53.334 53.334zM640 288c0 29.44 23.894 53.334 53.334 53.334s53.334-23.894 53.334-53.334-23.894-53.334-53.334-53.334-53.334 23.894-53.334 53.334zM256 96c0 29.44 23.894 53.334 53.334 53.334s53.334-23.894 53.334-53.334-23.894-53.334-53.334-53.334-53.334 23.894-53.334 53.334zM448 96c0 29.44 23.894 53.334 53.334 53.334s53.334-23.894 53.334-53.334-23.894-53.334-53.334-53.334-53.334 23.894-53.334 53.334zM640 96c0 29.44 23.894 53.334 53.334 53.334s53.334-23.894 53.334-53.334-23.894-53.334-53.334-53.334-53.334 23.894-53.334 53.334z" />
<glyph unicode="&#xe90b;" glyph-name="mobile" d="M128 21.334c0-47.146 38.186-85.334 85.334-85.334h576c47.146 0 85.334 38.186 85.334 85.334l-0.002 853.332c0 47.146-38.186 85.334-85.334 85.334h-575.998c-47.148 0-85.334-38.186-85.334-85.334v-853.332zM281.6 853.334h439.466c26.028 0 46.934-20.908 46.934-46.934v-524.8c0-26.026-20.906-46.934-46.934-46.934h-439.466c-26.026 0-46.934 20.906-46.934 46.934v524.8c0 26.026 20.908 46.934 46.934 46.934zM448 96c0 29.44 23.894 53.334 53.334 53.334s53.334-23.894 53.334-53.334-23.894-53.334-53.334-53.334-53.334 23.894-53.334 53.334z" />
<glyph unicode="&#xe90c;" glyph-name="ipod" d="M448 181.334c0-29.44 23.894-53.334 53.334-53.334s53.334 23.894 53.334 53.334-23.894 53.332-53.334 53.332-53.334-23.892-53.334-53.332zM128 21.334c0-47.146 38.186-85.334 85.334-85.334h576c47.146 0 85.334 38.186 85.334 85.334l-0.002 853.332c0 47.146-38.186 85.334-85.334 85.334h-575.998c-47.148 0-85.334-38.186-85.334-85.334v-853.332zM281.6 853.334h439.466c26.028 0 46.934-20.908 46.934-46.934v-354.134c0-26.026-20.906-46.934-46.934-46.934l-439.466 0.002c-26.026 0-46.934 20.906-46.934 46.934v354.132c0 26.026 20.908 46.934 46.934 46.934zM362.666 181.334c0 76.586 62.080 138.666 138.666 138.666s138.666-62.080 138.666-138.666-62.078-138.668-138.664-138.668-138.668 62.080-138.668 138.668z" />
<glyph unicode="&#xe90d;" glyph-name="monitor" d="M362.666 128c23.466 0 42.666-19.2 42.666-42.666s-19.2-42.666-42.666-42.666l-160-0.002c-29.44 0-53.332-23.892-53.332-53.332s23.892-53.334 53.332-53.334h597.334c29.44 0 53.334 23.894 53.334 53.334s-23.894 53.332-53.334 53.332h-160c-23.466 0-42.666 19.2-42.666 42.666s19.2 42.666 42.666 42.666h277.334c47.146 0 85.334 38.186 85.334 85.334l-0.002 661.334c0 47.146-38.186 85.334-85.334 85.334h-831.998c-47.148 0-85.334-38.186-85.334-85.334v-661.334c0-47.146 38.186-85.334 85.334-85.334l277.332 0.002zM448 288c0 29.44 23.894 53.334 53.334 53.334s53.334-23.894 53.334-53.334-23.894-53.334-53.334-53.334-53.334 23.894-53.334 53.334zM153.6 853.334h695.466c26.028 0 46.934-20.908 46.934-46.934v-332.8c0-26.026-20.906-46.934-46.934-46.934h-695.466c-26.026 0-46.934 20.908-46.934 46.934v332.8c0 26.026 20.908 46.934 46.934 46.934z" />
<glyph unicode="&#xe90e;" glyph-name="laptop" d="M917.334 320v512c0 47.146-38.186 85.334-85.334 85.334h-640c-47.146 0-85.334-38.188-85.334-85.334v-512l-106.666-213.334v-42.666c0-47.146 38.186-85.334 85.334-85.334h853.334c47.146 0 85.334 38.186 85.334 85.334v42.666l-106.668 213.334zM260.266 810.666h503.466c26.028 0 46.934-20.906 46.934-46.932v-332.8c0-26.026-20.906-46.934-46.934-46.934h-503.466c-26.026 0-46.934 20.906-46.934 46.934l0.002 332.8c0 26.026 20.906 46.932 46.932 46.932zM384 192h256l21.334-85.334h-298.668l21.334 85.334z" />
<glyph unicode="&#xe90f;" glyph-name="modem" d="M0 21.334c0-47.146 38.186-85.334 85.334-85.334h853.334c47.146 0 85.334 38.186 85.334 85.334l-0.002 234.666c0 47.146-38.186 85.334-85.334 85.334h-256v224c0 29.44-23.894 53.334-53.334 53.334s-53.332-23.894-53.332-53.334v-224h-490.666c-47.146 0-85.334-38.186-85.334-85.334v-234.666zM106.666 138.666c0 29.44 23.894 53.334 53.334 53.334s53.334-23.894 53.334-53.334-23.894-53.332-53.334-53.332-53.334 23.892-53.334 53.332zM298.666 138.666c0 29.44 23.894 53.334 53.334 53.334s53.334-23.894 53.334-53.334-23.894-53.332-53.334-53.332-53.334 23.892-53.334 53.332zM629.334 789.334c-123.734 0-224-100.268-224-224 0-29.44 23.894-53.334 53.334-53.334s53.334 23.894 53.334 53.334c0 64.854 52.48 117.334 117.334 117.334s117.334-52.48 117.334-117.334c0-29.44 23.894-53.334 53.334-53.334s53.334 23.894 53.334 53.334c-0.004 123.732-100.272 224-224.004 224zM629.334 960c-218.028 0-394.668-176.64-394.668-394.666 0-29.44 23.894-53.334 53.334-53.334s53.334 23.894 53.334 53.334c0 159.146 128.852 288 288 288s288-128.854 288-288c0-29.44 23.894-53.334 53.334-53.334s53.334 23.894 53.334 53.334c-0.002 218.026-176.62 394.666-394.668 394.666z" />
<glyph unicode="&#xe910;" glyph-name="speaker" d="M448 629.334c0 29.44 23.894 53.334 53.334 53.334s53.334-23.894 53.334-53.334-23.894-53.334-53.334-53.334-53.334 23.894-53.334 53.334zM501.334 768c-76.586 0-138.666-62.080-138.666-138.666s62.080-138.666 138.666-138.666 138.666 62.080 138.666 138.666-62.080 138.666-138.666 138.666zM384 128c23.466 0 42.666-19.2 42.666-42.666s-19.2-42.666-42.666-42.666h-160c-29.44-0.002-53.334-23.894-53.334-53.334s23.894-53.334 53.334-53.334h554.666c29.44 0 53.334 23.894 53.334 53.334s-23.894 53.332-53.334 53.332h-160c-23.466 0-42.666 19.2-42.666 42.666s19.2 42.666 42.666 42.666h128c47.146 0 85.334 38.186 85.334 85.334v661.334c0 47.146-38.186 85.334-85.334 85.334h-490.666c-47.146 0-85.334-38.186-85.334-85.334v-661.334c0-47.146 38.186-85.334 85.334-85.334l128 0.002zM618.666 288c0 29.44 23.894 53.334 53.334 53.334s53.334-23.894 53.334-53.334-23.894-53.334-53.334-53.334-53.334 23.894-53.334 53.334zM501.334 853.334c123.732 0 224-100.268 224-224s-100.268-224-224-224-224 100.266-224 224 100.266 224 224 224z" />
<glyph unicode="&#xe911;" glyph-name="window" d="M573.866 248.106l62.080-62.080c20.458-20.48 53.526-20.48 74.006 0 20.502 20.48 20.502 53.568 0 74.026l-61.846 62.082 61.846 61.866c0 0-234.218 100.054-243.818 103.68-5.12 1.92-10.454 2.986-16 2.986-24.746 0-44.8-19.84-44.8-44.374 0-5.76 1.066-11.094 2.986-16 3.626-9.172 103.68-244.266 103.68-244.266l61.866 62.080zM0 42.666c0-47.146 38.186-85.334 85.334-85.334h853.334c47.146 0 85.334 38.186 85.334 85.334l-0.002 789.334c0 47.146-38.186 85.334-85.334 85.334h-853.332c-47.148 0-85.334-38.188-85.334-85.334v-789.334zM153.6 618.666h716.8c26.026 0 46.934-20.906 46.934-46.934v-460.8c0-26.026-20.906-46.934-46.934-46.934l-716.8 0.002c-26.026 0-46.934 20.906-46.934 46.934v460.8c0 26.026 20.908 46.932 46.934 46.932zM106.666 757.334c0 29.44 23.894 53.332 53.334 53.332s53.334-23.892 53.334-53.332-23.894-53.334-53.334-53.334-53.334 23.894-53.334 53.334zM298.666 757.334c0 29.44 23.894 53.332 53.334 53.332s53.334-23.892 53.334-53.332-23.894-53.334-53.334-53.334-53.334 23.894-53.334 53.334zM490.666 757.334c0 29.44 23.894 53.332 53.334 53.332s53.334-23.892 53.334-53.332-23.894-53.334-53.334-53.334-53.334 23.894-53.334 53.334z" />
<glyph unicode="&#xe912;" glyph-name="server" d="M746.666 736c0-29.44 23.894-53.334 53.334-53.334s53.334 23.894 53.334 53.334-23.894 53.334-53.334 53.334-53.334-23.894-53.334-53.334zM746.666 394.666c0-29.44 23.894-53.334 53.334-53.334s53.334 23.894 53.334 53.334-23.894 53.334-53.334 53.334-53.334-23.894-53.334-53.334zM0 256c0-47.146 38.186-85.334 85.334-85.334h362.666v-58.88c-10.454-7.040-19.414-16-26.454-26.454l-261.546 0.002c-29.44 0-53.334-23.894-53.334-53.334s23.894-53.334 53.334-53.334h261.546c17.28-25.814 46.506-42.666 79.786-42.666s62.506 16.854 79.786 42.666h282.882c29.44 0 53.334 23.894 53.334 53.334s-23.894 53.334-53.334 53.334h-282.88c-7.040 10.454-16 19.414-26.454 26.454v58.878h384c47.146 0 85.334 38.186 85.334 85.334v618.666c0 47.146-38.186 85.334-85.334 85.334h-853.332c-47.148 0-85.334-38.186-85.334-85.334v-618.666zM153.6 853.334h716.8c26.026 0 46.934-20.908 46.934-46.934v-140.8c0-26.026-20.906-46.934-46.934-46.934h-716.8c-26.026 0-46.934 20.908-46.934 46.934v140.8c0 26.026 20.908 46.934 46.934 46.934zM153.6 512h716.8c26.026 0 46.934-20.906 46.934-46.934v-140.8c0-26.026-20.906-46.934-46.934-46.934l-716.8 0.002c-26.026 0-46.934 20.906-46.934 46.932v140.8c0 26.028 20.908 46.934 46.934 46.934z" />
<glyph unicode="&#xe913;" glyph-name="hdd" d="M554.666 565.334c0 29.44-23.894 53.334-53.334 53.334s-53.332-23.894-53.332-53.334 23.894-53.334 53.334-53.334 53.332 23.894 53.332 53.334zM170.666 960c-58.88 0-106.666-47.786-106.666-106.666v-810.666c0-58.88 47.786-106.666 106.666-106.666h661.334c58.88 0 106.666 47.786 106.666 106.666v810.666c0 58.88-47.786 106.666-106.666 106.666h-661.334zM501.334 853.334c159.146 0 288-128.854 288-288 0-82.986-35.008-157.866-91.306-210.346-28.8 21.782-55.68 43.114-71.040 58.666-45.846 45.866-120.106 45.866-165.974 0-34.752-34.774-43.094-86.186-25.174-128.854-127.574 29.654-222.506 144-222.506 280.534 0 159.146 128.852 288 288 288zM170.666 96c0 29.44 23.894 53.334 53.334 53.334s53.334-23.894 53.334-53.334-23.894-53.334-53.334-53.334-53.334 23.894-53.334 53.334zM521.6 353.066c12.8 12.822 33.472 12.822 46.506 0 7.488-7.68 217.194-155.306 241.494-179.626 29.846-30.080 29.846-78.506 0-108.374-29.866-29.846-78.314-29.846-108.374 0-25.6 25.6-172.608 234.666-179.626 241.494-12.8 13.014-12.8 33.706 0 46.506z" />
<glyph unicode="&#xe914;" glyph-name="keyboard" d="M874.666 640c0 106.026-85.974 192-192 192h-341.332c-39.68 0-73.194 27.094-82.56 64 0 0-2.774 7.040-2.774 10.666 0 29.44-23.894 53.334-53.334 53.334s-53.332-23.894-53.332-53.334c0-4.054 0.426-7.894 1.302-11.734 11.070-95.572 92.138-169.598 190.698-169.598h341.334c47.146 0 85.334-38.186 85.334-85.334h-682.668c-47.146 0-85.334-38.186-85.334-85.334v-533.334c0-47.146 38.186-85.334 85.334-85.334h853.334c47.146 0 85.334 38.186 85.334 85.334l-0.002 533.334c0 47.146-38.186 85.334-85.334 85.334h-64zM629.334 533.334c29.44 0 53.334-23.894 53.334-53.334s-23.894-53.334-53.334-53.334-53.334 23.894-53.334 53.334 23.894 53.334 53.334 53.334zM629.334 341.334c29.44 0 53.334-23.894 53.334-53.334s-23.894-53.334-53.334-53.334-53.334 23.894-53.334 53.334 23.894 53.334 53.334 53.334zM394.666 533.334c29.44 0 53.334-23.894 53.334-53.334s-23.894-53.334-53.334-53.334-53.332 23.894-53.332 53.334 23.892 53.334 53.332 53.334zM394.666 341.334c29.44 0 53.334-23.894 53.334-53.334s-23.894-53.334-53.334-53.334-53.332 23.894-53.332 53.334 23.892 53.334 53.332 53.334zM160 533.334c29.44 0 53.334-23.894 53.334-53.334s-23.894-53.334-53.334-53.334-53.334 23.894-53.334 53.334 23.894 53.334 53.334 53.334zM160 341.334c29.44 0 53.334-23.894 53.334-53.334s-23.894-53.334-53.334-53.334-53.334 23.894-53.334 53.334 23.894 53.334 53.334 53.334zM160 149.334c29.44 0 53.334-23.894 53.334-53.334s-23.894-53.334-53.334-53.334-53.334 23.894-53.334 53.334 23.894 53.334 53.334 53.334zM864 533.334c29.44 0 53.334-23.894 53.334-53.334s-23.894-53.334-53.334-53.334-53.334 23.894-53.334 53.334 23.894 53.334 53.334 53.334zM864 341.334c29.44 0 53.334-23.894 53.334-53.334s-23.894-53.334-53.334-53.334-53.334 23.894-53.334 53.334 23.894 53.334 53.334 53.334zM864 149.334c29.44 0 53.334-23.894 53.334-53.334s-23.894-53.334-53.334-53.334-53.334 23.894-53.334 53.334 23.894 53.334 53.334 53.334zM682.666 42.666h-341.332c-23.466 0-42.666 19.2-42.666 42.666s19.2 42.666 42.666 42.666h341.334c23.466 0 42.666-19.2 42.666-42.666s-19.2-42.666-42.668-42.666z" />
<glyph unicode="&#xe915;" glyph-name="mouse" d="M960 446.934c0 127.36-92.374 233.174-213.546 253.44-3.628 144-121.6 259.626-266.454 259.626-147.2 0-266.666-119.466-266.666-266.666v-330.668c0-58.88-47.786-106.666-106.666-106.666h-10.668c-29.44 0-53.334-23.894-53.334-53.334s23.894-53.332 53.334-53.332h10.666c117.76 0 213.334 95.574 213.334 213.334v330.666c0 88.32 71.68 160 160 160 87.466 0 158.698-70.186 160-157.44-110.506-28.586-192-129.28-192-248.96v-253.866c0-141.868 114.56-257.068 256-257.068s256 115.2 256 257.066v253.868zM746.666 554.666v-128c0-23.466-19.2-42.666-42.666-42.666s-42.666 19.2-42.666 42.666v128c0 23.466 19.2 42.666 42.666 42.666s42.666-19.198 42.666-42.666z" />
<glyph unicode="&#xe916;" glyph-name="cd" d="M448 437.334c0 29.44 23.894 53.334 53.334 53.334s53.334-23.894 53.334-53.334-23.894-53.334-53.334-53.334-53.334 23.894-53.334 53.334zM501.334 576c-76.586 0-138.666-62.080-138.666-138.666s62.080-138.666 138.666-138.666 138.666 62.080 138.666 138.666-62.080 138.666-138.666 138.666zM0 437.334c0-276.908 224.426-501.334 501.334-501.334 276.906 0 501.332 224.426 501.332 501.334 0 276.906-224.426 501.332-501.332 501.332-276.908 0-501.334-224.426-501.334-501.332zM501.334 661.334c123.732 0 224-100.268 224-224s-100.268-224-224-224-224 100.266-224 224 100.266 224 224 224z" />
<glyph unicode="&#xe917;" glyph-name="floppy" d="M448 245.334c0-29.44 23.894-53.334 53.334-53.334s53.334 23.894 53.334 53.334-23.894 53.332-53.334 53.332-53.334-23.892-53.334-53.332zM85.334 960c-47.148 0-85.334-38.186-85.334-85.334v-853.334c0-47.146 38.186-85.334 85.334-85.334h853.334c47.146 0 85.334 38.186 85.334 85.334l-0.002 727.042c0 28.586-11.286 53.974-29.44 72.32l-108.374 107.946c-19.178 19.414-46.080 31.36-75.52 31.36h-725.332zM153.6 853.334h59.734v-166.4c0-26.026 20.906-46.934 46.934-46.934h55.466c26.026 0 46.934 20.906 46.934 46.934l-0.002 166.4h401.066c26.028 0 46.934-20.908 46.934-46.934v-204.8c0-26.026-20.906-46.934-46.934-46.934h-610.132c-26.026 0-46.934 20.908-46.934 46.934v204.8c0 26.026 20.908 46.934 46.934 46.934zM362.666 245.334c0 76.586 62.080 138.666 138.666 138.666s138.666-62.080 138.666-138.666-62.078-138.668-138.664-138.668-138.668 62.080-138.668 138.668z" />
<glyph unicode="&#xe918;" glyph-name="hardware" d="M128 149.334c0-47.146 38.186-85.334 85.334-85.334h21.334v-74.666c0-29.44 23.894-53.334 53.334-53.334s53.334 23.894 53.334 53.334l-0.002 74.666h106.666v-74.666c0-29.44 23.894-53.334 53.334-53.334s53.334 23.894 53.334 53.334l-0.002 74.666h106.666v-74.666c0-29.44 23.894-53.334 53.334-53.334s53.334 23.894 53.334 53.334v74.666h21.334c47.146 0 85.334 38.186 85.334 85.334v21.334h74.666c29.44 0 53.334 23.894 53.334 53.334s-23.894 53.332-53.334 53.332h-74.668v106.666h74.666c29.44 0 53.334 23.894 53.334 53.334s-23.892 53.332-53.332 53.332h-74.668v106.666h74.666c29.44 0 53.334 23.894 53.334 53.334s-23.892 53.334-53.332 53.334h-74.668v21.334c0 47.146-38.186 85.334-85.334 85.334h-21.334l0.002 74.666c0 29.44-23.894 53.332-53.334 53.332s-53.332-23.892-53.332-53.332v-74.668h-106.666l-0.002 74.668c0 29.44-23.892 53.332-53.332 53.332s-53.334-23.892-53.334-53.332v-74.668h-106.666v74.668c0 29.44-23.894 53.332-53.334 53.332s-53.334-23.892-53.334-53.332v-74.668h-21.334c-47.146 0-85.334-38.186-85.334-85.334v-21.334l-74.664 0.002c-29.44 0-53.334-23.894-53.334-53.334s23.894-53.332 53.334-53.332h74.666v-106.666l-74.666-0.002c-29.44 0-53.334-23.892-53.334-53.332s23.894-53.334 53.334-53.334h74.666v-106.666h-74.666c-29.44 0-53.334-23.894-53.334-53.334s23.894-53.334 53.334-53.334h74.666v-21.332zM661.334 550.4v-226.134c0-26.026-20.906-46.934-46.934-46.934l-226.134 0.002c-26.026 0-46.934 20.906-46.934 46.934l0.002 226.132c0 26.026 20.906 46.934 46.934 46.934h226.134c26.024 0 46.932-20.908 46.932-46.934z" />
<glyph unicode="&#xe919;" glyph-name="usb" d="M735.574 935.254c-32.874 33.066-86.208 33.066-119.274 0l-253.44-252.8-53.952 53.974-192.64-193.494c-20.908-20.908-30.934-47.98-30.934-75.948v-253.652l0.426-0.426-61.014-61.25c-33.066-33.046-33.066-86.378 0-119.254l71.68-71.658c32.874-33.088 86.208-33.088 119.254 0l61.248 60.992 0.406-0.404h254.080c27.286-0.426 55.040 10.048 75.946 30.954l192.64 193.046-53.546 53.546 252.8 253.44c33.066 33.066 33.066 86.4 0 119.254l-263.68 263.68zM820.032 627.2l20.502-20.48c17.066-17.066 17.066-44.374 0-61.44l-20.502-20.48c-17.066-17.066-44.374-17.066-61.418 0l-20.502 20.48c-17.066 17.066-17.066 44.374 0 61.44l20.502 20.48c17.044 17.088 44.372 17.088 61.418 0zM670.698 776.534l20.502-20.48c17.066-17.066 17.066-44.374 0-61.44l-20.502-20.48c-17.066-17.066-44.374-17.066-61.418 0l-20.502 20.48c-17.066 17.066-17.066 44.374 0 61.44l20.502 20.48c17.046 17.088 44.374 17.088 61.418 0z" />
<glyph unicode="&#xe91a;" glyph-name="cord" d="M657.322 944.682l-187.968-187.734-81.302 81.066c-20.458 20.48-53.546 20.48-74.026 0s-20.48-53.546 0-74.026l11.52-11.52-90.88-91.094c-117.334-117.334-141.44-290.368-56.746-427.542l-153.174-153.174c-33.088-33.046-33.088-86.826 0-119.872 33.066-33.088 86.826-33.088 119.658 0l153.194 153.366c137.6-85.334 310.208-60.992 427.734 56.534l90.88 91.094 11.754-11.754c20.458-20.458 53.504-20.458 74.006 0 20.502 20.502 20.502 53.59 0 74.048l-91.968 91.968 198.634 198.614c20.502 20.48 20.502 53.546 0 74.026s-53.546 20.48-74.006 0l-198.634-198.4-192.662 192.426 187.968 187.946c20.502 20.48 20.502 53.546 0 74.026s-53.522 20.482-73.982 0.002z" />
<glyph unicode="&#xe91b;" glyph-name="socket" d="M320 437.334c0-29.44 23.894-53.334 53.334-53.334s53.334 23.894 53.334 53.334-23.894 53.332-53.334 53.332-53.334-23.892-53.334-53.332zM576 437.334c0-29.44 23.894-53.334 53.334-53.334s53.334 23.894 53.334 53.334-23.894 53.332-53.334 53.332-53.334-23.892-53.334-53.332zM0 21.334c0-47.146 38.186-85.334 85.334-85.334h832c47.146 0 85.334 38.186 85.334 85.334l-0.002 832c0 47.146-38.186 85.334-85.334 85.334l-831.998-0.002c-47.148 0-85.334-38.186-85.334-85.332v-832zM213.334 437.334c0 159.146 128.852 288 288 288s288-128.854 288-288-128.854-288-288-288-288 128.852-288 288z" />
<glyph unicode="&#xe91c;" glyph-name="socket1" d="M170.666 672v-106.666c0-29.44 23.894-53.334 53.334-53.334s53.334 23.894 53.334 53.334v106.666c0 29.44-23.894 53.334-53.334 53.334s-53.334-23.894-53.334-53.334zM362.666 672v-106.666c0-29.44 23.894-53.334 53.334-53.334s53.334 23.894 53.334 53.334v106.666c0 29.44-23.894 53.334-53.334 53.334s-53.334-23.894-53.334-53.334zM554.666 672v-106.666c0-29.44 23.894-53.334 53.334-53.334s53.334 23.894 53.334 53.334v106.666c0 29.44-23.894 53.334-53.334 53.334s-53.334-23.894-53.334-53.334zM746.666 672v-106.666c0-29.44 23.894-53.334 53.334-53.334s53.334 23.894 53.334 53.334v106.666c0 29.44-23.894 53.334-53.334 53.334s-53.334-23.894-53.334-53.334zM0 21.334c0-47.146 38.186-85.334 85.334-85.334h853.334c47.146 0 85.334 38.186 85.334 85.334l-0.002 853.332c0 47.146-38.186 85.334-85.334 85.334h-853.332c-47.148 0-85.334-38.186-85.334-85.334v-853.332zM153.6 789.334h716.8c26.026 0 46.934-20.906 46.934-46.934v-332.8c0-26.026-20.906-46.934-46.934-46.934h-59.734v-81.066c0-26.026-20.906-46.934-46.934-46.934h-123.732v-81.066c0-26.026-20.906-46.934-46.934-46.934h-162.134c-26.026 0-46.934 20.906-46.934 46.934l0.002 81.066h-123.734c-26.026 0-46.934 20.906-46.934 46.934l0.002 81.066h-59.734c-26.026 0-46.934 20.908-46.934 46.934v332.8c0 26.026 20.908 46.934 46.934 46.934z" />
<glyph unicode="&#xe91d;" glyph-name="socket2" d="M426.666 341.334v-106.666h170.666v106.666c0 47.146-38.186 85.334-85.334 85.334s-85.332-38.188-85.332-85.334zM277.334 608v-106.666c0-29.44 23.894-53.334 53.334-53.334s53.334 23.894 53.334 53.334v106.666c0 29.44-23.894 53.334-53.334 53.334s-53.334-23.894-53.334-53.334zM640 608v-106.666c0-29.44 23.894-53.334 53.334-53.334s53.334 23.894 53.334 53.334v106.666c0 29.44-23.894 53.334-53.334 53.334s-53.334-23.894-53.334-53.334zM0 21.334c0-47.146 38.186-85.334 85.334-85.334h853.334c47.146 0 85.334 38.186 85.334 85.334l-0.002 853.332c0 47.146-38.186 85.334-85.334 85.334h-853.332c-47.148 0-85.334-38.186-85.334-85.334v-853.332zM149.334 448c0 103.040 20.906 200.96 58.666 290.346l2.134 5.334c6.826 14.506 21.546 24.32 38.612 24.32h526.506c17.088 0 31.786-9.814 38.634-24.32l2.134-5.334c37.74-89.386 58.646-187.306 58.646-290.346s-20.906-200.96-58.666-290.346l-2.134-5.334c-6.826-14.506-21.524-24.32-38.612-24.32h-526.508c-17.066 0-31.786 9.814-38.614 24.32l-2.134 5.334c-37.758 89.386-58.664 187.306-58.664 290.346z" />
<glyph unicode="&#xe91e;" glyph-name="printer" d="M0 21.334c0-47.146 38.186-85.334 85.334-85.334h853.334c47.146 0 85.334 38.186 85.334 85.334l-0.002 512c0 47.146-38.186 85.334-85.334 85.334h-64v255.998c0 47.146-38.186 85.334-85.334 85.334h-554.666c-47.146 0-85.332-38.186-85.332-85.334v-256h-64c-47.146 0-85.334-38.186-85.334-85.334v-511.998zM768 806.4v-247.466c0-26.026-20.906-46.934-46.934-46.934h-418.132c-26.026 0-46.934 20.906-46.934 46.934v247.466c0 26.026 20.906 46.934 46.934 46.934h418.134c26.026 0 46.932-20.908 46.932-46.934zM832 42.666h-640c-23.466 0-42.666 19.2-42.666 42.666s19.2 42.666 42.666 42.666h640c23.466 0 42.666-19.2 42.666-42.666s-19.2-42.666-42.666-42.666zM149.334 266.666c0 29.44 23.892 53.334 53.332 53.334s53.334-23.894 53.334-53.334-23.894-53.332-53.334-53.332-53.332 23.892-53.332 53.332z" />
<glyph unicode="&#xe91f;" glyph-name="camera" d="M576 373.334c0 29.44 23.894 53.334 53.334 53.334s53.334-23.894 53.334-53.334-23.894-53.334-53.334-53.334-53.334 23.894-53.334 53.334zM629.334 512c-76.586 0-138.666-62.080-138.666-138.666s62.080-138.666 138.666-138.666 138.666 62.080 138.666 138.666-62.080 138.666-138.666 138.666zM0 128c0-47.146 38.186-85.334 85.334-85.334h853.334c47.146 0 85.334 38.186 85.334 85.334l-0.002 490.666c0 47.146-38.186 85.334-85.334 85.334h-80l-109.226 109.226c-12.586 12.588-29.014 18.774-45.44 18.774h-149.12c-16.426 0-33.066-6.186-45.44-18.774l-108.8-109.226h-80.64v48c0 20.694-16.64 37.334-37.334 37.334h-138.666c-20.694 0-37.334-16.64-37.334-37.334v-48h-21.332c-47.146 0-85.334-38.186-85.334-85.334v-490.666zM277.334 512h-128c-23.466 0-42.666 19.2-42.666 42.666s19.2 42.666 42.666 42.666h128c23.466 0 42.666-19.2 42.666-42.666s-19.2-42.666-42.666-42.666zM629.334 597.334c123.732 0 224-100.268 224-224s-100.268-224-224-224-224 100.266-224 224 100.266 224 224 224z" />
<glyph unicode="&#xe920;" glyph-name="pictures" d="M725.334 693.334c0-29.44 23.894-53.334 53.334-53.334s53.334 23.894 53.334 53.334-23.896 53.332-53.336 53.332-53.332-23.892-53.332-53.332zM192 405.334v-58.666c0-26.454 21.546-48.002 48-48.002h592l-203.968 200.534c-17.066 17.066-44.374 17.066-61.418 0l-43.114-42.454-108.822 106.454c-17.066 17.066-47.766 17.066-64.618 0l-158.060-157.866zM0 42.666c0-47.146 38.186-85.334 85.334-85.334h853.334c47.146 0 85.334 38.186 85.334 85.334l-0.002 810.668c0 47.146-38.186 85.334-85.334 85.334l-853.332-0.002c-47.148 0-85.334-38.186-85.334-85.332v-810.668zM153.6 832h716.8c26.026 0 46.934-20.906 46.934-46.934v-524.8c0-26.026-20.906-46.934-46.934-46.934l-716.8 0.002c-26.026 0-46.934 20.906-46.934 46.932v524.8c0 26.028 20.908 46.934 46.934 46.934z" />
<glyph unicode="&#xe921;" glyph-name="eye" d="M383.894 448c0-70.634 57.366-128 128-128s128 57.366 128 128v1.066c-13.674-13.866-32.426-22.4-53.334-22.4-41.194 0-74.666 33.494-74.666 74.666 0 29.654 17.472 55.466 42.454 67.414-13.226 4.694-27.52 7.254-42.454 7.254-70.614 0-128-57.386-128-128zM995.306 520.746c-79.36 100.908-272.64 268.588-483.2 268.588-210.774 0-404.246-167.68-483.626-268.586-17.92-23.040-27.734-48-28.374-72.746 0.64-24.746 10.454-49.706 28.374-72.746 79.382-100.93 272.64-268.59 483.414-268.59s404.032 167.658 483.414 268.586c18.134 23.040 27.946 48 28.586 72.746-0.64 24.748-10.454 49.708-28.588 72.748zM511.894 234.666c-117.76 0-213.334 95.574-213.334 213.334s95.574 213.334 213.334 213.334 213.334-95.574 213.334-213.334c-0.002-117.76-95.574-213.334-213.334-213.334z" />
<glyph unicode="&#xe922;" glyph-name="uniE922" d="M149.334 960c-47.148 0-85.334-38.186-85.334-85.334v-853.334c0-47.146 38.186-85.334 85.334-85.334h704c47.146 0 85.334 38.186 85.334 85.334l-0.002 341.334h-38.4c-26.026 0-46.934 20.906-46.934 46.934v119.466c0 26.026 20.906 46.934 46.934 46.934h38.4v172.374c0 28.586-11.306 53.974-29.44 72.32l-108.374 107.946c-19.198 19.414-46.078 31.36-75.518 31.36h-576zM256 810.666v-192c0-23.466-19.2-42.666-42.666-42.666s-42.666 19.2-42.666 42.666l-0.002 192c0 23.466 19.2 42.666 42.666 42.666s42.668-19.198 42.668-42.666zM448 810.666v-192c0-23.466-19.2-42.666-42.666-42.666s-42.666 19.2-42.666 42.666l-0.002 192c0 23.466 19.2 42.666 42.666 42.666s42.668-19.198 42.668-42.666zM640 810.666v-192c0-23.466-19.2-42.666-42.666-42.666s-42.666 19.2-42.666 42.666l-0.002 192c0 23.466 19.2 42.666 42.666 42.666s42.668-19.198 42.668-42.666zM217.6 277.334h503.466c26.026 0 46.934-20.906 46.934-46.934v-140.8c0-26.026-20.906-46.934-46.934-46.934h-503.466c-26.026 0-46.934 20.908-46.934 46.934v140.8c0 26.026 20.908 46.934 46.934 46.934z" />
<glyph unicode="&#xe923;" glyph-name="film" d="M618.666 42.666h166.4c26.026 0 46.934 20.906 46.934 46.934v123.734c0 23.466 19.2 42.666 42.666 42.666h102.4c26.026 0 46.934 20.906 46.934 46.934v418.132c0 26.028-20.906 46.934-46.934 46.934h-358.4v21.334c0 47.146-38.186 85.334-85.334 85.334h-64l0.002 38.398c0 26.028-20.908 46.934-46.934 46.934h-226.134c-26.026 0-46.932-20.906-46.932-46.934v-38.4h-64c-47.148 0-85.334-38.186-85.334-85.332v-768c0-47.146 38.186-85.334 85.334-85.334h448c47.146 0 85.334 38.186 85.334 85.334l-0.002 21.332zM810.666 608c0 29.44 23.894 53.334 53.334 53.334s53.334-23.894 53.334-53.334-23.894-53.334-53.334-53.334-53.334 23.894-53.334 53.334zM618.666 608c0 29.44 23.894 53.334 53.334 53.334s53.334-23.894 53.334-53.334-23.894-53.334-53.334-53.334-53.334 23.894-53.334 53.334zM618.666 202.666c0 29.44 23.894 53.334 53.334 53.334s53.334-23.894 53.334-53.334-23.894-53.332-53.334-53.332-53.334 23.892-53.334 53.332zM192 725.334v-640c0-23.466-19.2-42.666-42.666-42.666s-42.666 19.2-42.666 42.666l-0.002 640c0 23.466 19.2 42.666 42.666 42.666s42.668-19.2 42.668-42.666z" />
<glyph unicode="&#xe924;" glyph-name="camera1" d="M192 106.666c0-47.146 38.186-85.334 85.334-85.334h661.334c47.146 0 85.334 38.186 85.334 85.334l-0.002 490.668c0 47.146-38.186 85.334-85.334 85.334l-256-0.002c-23.466 0-42.666 19.2-42.666 42.666s19.2 42.666 42.666 42.666h288c29.44 0.002 53.334 23.896 53.334 53.336s-23.894 53.332-53.334 53.332h-352c-39.894 0-75.968-27.094-85.334-64l-42.454-128h-87.254c-28.586 0-53.974-11.306-72.32-29.44l-107.946-108.374c-19.412-19.198-31.358-46.078-31.358-75.518v-64h-85.334v10.666c0 29.44-23.892 53.334-53.332 53.334s-53.334-23.894-53.334-53.334v-277.334c0-29.44 23.894-53.332 53.334-53.332s53.332 23.892 53.332 53.332v10.668h85.334v-42.668zM473.6 341.334h396.8c26.026 0 46.934-20.906 46.934-46.934v-119.466c0-26.026-20.906-46.934-46.934-46.934h-396.8c-26.026 0-46.934 20.906-46.934 46.934v119.466c0 26.026 20.908 46.934 46.934 46.934zM426.666 522.666c0 29.44 23.894 53.334 53.334 53.334s53.334-23.894 53.334-53.334-23.894-53.332-53.334-53.332-53.334 23.892-53.334 53.332z" />
<glyph unicode="&#xe925;" glyph-name="movie" d="M0 373.334c0-241.494 195.84-437.334 437.334-437.334 241.492 0 437.332 195.84 437.332 437.334 0 82.56-35.414 187.52-64 232.106-24.746 38.186-33.302 62.72-33.302 98.56 0 74.666 78.72 149.334 161.302 149.334h10.666c29.442 0 53.334 23.892 53.334 53.332s-23.892 53.334-53.332 53.334h-10.668c-131.2 0-243.414-69.974-270.080-213.334-54.634 41.388-139.52 64-231.252 64-241.494 0-437.334-195.84-437.334-437.332zM384 373.334c0 29.44 23.894 53.334 53.334 53.334s53.334-23.894 53.334-53.334-23.894-53.334-53.334-53.334-53.334 23.894-53.334 53.334zM106.666 373.334c0 53.12 42.88 96 96 96s96-42.88 96-96-42.88-96-96-96-96 42.88-96 96zM576 373.334c0 53.12 42.88 96 96 96s96-42.88 96-96-42.88-96-96-96-96 42.88-96 96zM341.334 138.666c0 53.12 42.88 96 96 96s96-42.88 96-96-42.88-96-96-96-96 42.88-96 96zM341.334 608c0 53.12 42.88 96 96 96s96-42.88 96-96-42.88-96-96-96-96 42.88-96 96z" />
<glyph unicode="&#xe926;" glyph-name="tv" d="M0 21.334c0-47.146 38.186-85.334 85.334-85.334h853.334c47.146 0 85.334 38.186 85.334 85.334l-0.002 597.332c0 47.146-38.186 85.334-85.334 85.334h-373.972l166.614 166.614c20.502 20.48 20.502 53.546 0 74.026-20.48 20.48-53.546 20.48-74.006 0l-240.876-240.64h-1.066l-176.64 176.64c-20.48 20.48-53.546 20.48-74.026 0s-20.48-53.546 0-74.026l102.4-102.614h-181.76c-47.146 0-85.334-38.186-85.334-85.334v-597.332zM153.6 597.334h524.8c26.026 0 46.934-20.906 46.934-46.934v-460.8c0-26.026-20.906-46.934-46.934-46.934h-524.8c-26.026 0-46.934 20.908-46.934 46.934v460.8c0 26.026 20.908 46.934 46.934 46.934zM810.666 544c0 29.44 23.894 53.334 53.334 53.334s53.334-23.894 53.334-53.334-23.894-53.334-53.334-53.334-53.334 23.894-53.334 53.334zM810.666 373.334c0 29.44 23.894 53.334 53.334 53.334s53.334-23.894 53.334-53.334-23.894-53.334-53.334-53.334-53.334 23.894-53.334 53.334z" />
<glyph unicode="&#xe927;" glyph-name="camera2" d="M693.334 661.334c-76.586 0-138.666-62.080-138.666-138.666s62.080-138.666 138.666-138.666 138.666 62.080 138.666 138.666-62.080 138.666-138.666 138.666zM810.666 149.334v-53.334c0-29.44 23.894-53.334 53.334-53.334s53.334 23.894 53.334 53.334v53.334h21.334c47.146 0 85.334 38.186 85.334 85.334l-0.002 287.998c0 182.614-148.032 330.668-330.666 330.668-96.214 0-182.826-41.174-243.2-106.666l-364.8-0.002c-47.146 0-85.334-38.186-85.334-85.334v-426.666c0-47.146 38.186-85.334 85.334-85.334h21.334v-53.334c-0.002-29.438 23.892-53.332 53.332-53.332s53.334 23.894 53.334 53.334v53.334h597.332zM106.666 586.666c0 29.44 23.894 53.334 53.334 53.334s53.334-23.894 53.334-53.334-23.894-53.332-53.334-53.332-53.334 23.892-53.334 53.332zM693.334 746.666c123.732 0 224-100.266 224-224s-100.268-224-224-224-224 100.268-224 224 100.266 224 224 224z" />
<glyph unicode="&#xe928;" glyph-name="camera3" d="M313.344 206.528c16.448-44.992 65.706-68.246 110.294-51.84l215.274 74.006 30.506-127.338c6.592-30.698 50.326-58.666 82.518-58.666h122.666c23.466 0 42.666-19.2 42.666-42.688v-10.666c0-29.462 23.914-53.334 53.334-53.334 29.462 0 53.334 23.872 53.334 53.334v213.354c0 29.418-23.872 53.334-53.334 53.334-29.418 0-53.334-23.914-53.334-53.334v-10.666c0-23.466-19.2-42.666-42.666-42.666h-64c-23.466 0-36.906 19.84-42.666 42.666l-19.008 74.454 218.454 75.114c44.586 16.426 67.626 66.326 51.414 111.574l-161.706 449.728c-16.214 45.014-65.494 68.288-110.080 51.84l-543.746-186.884c-44.566-16.448-67.606-66.346-51.37-111.594l36.694-102.186-80.618-29.654-3.862 10.24c-10.026 28.16-40.96 42.666-68.694 32.426-27.968-10.24-42.24-41.386-32.214-69.782l95.574-265.62c10.026-28.374 40.96-42.88 68.886-32.618 27.754 10.454 42.218 41.578 31.978 69.76l-7.638 19.2 31.978 17.942 39.254 10.048 50.112-109.484zM682.624 778.71c0 29.44 23.914 53.334 53.312 53.334 29.462 0 53.334-23.914 53.334-53.334s-23.872-53.334-53.334-53.334c-29.398 0-53.312 23.914-53.312 53.334z" />
<glyph unicode="&#xe929;" glyph-name="volume" d="M253.44 234.666l271.146-264.96c7.68-7.68 18.348-12.372 30.080-12.372 23.466 0 42.666 19.008 42.666 42.24l0.002 896.852c0 23.254-19.2 42.24-42.668 42.24-11.968 0-22.826-4.906-30.528-12.8l-270.484-264.532h-168.32c-47.146 0-85.334-38.186-85.334-85.334v-256c0-47.146 38.186-85.334 85.334-85.334h168.106zM837.334 709.974c-20.48-20.266-20.48-53.334 0-73.814 50.774-50.986 82.326-121.174 82.326-198.826 0-77.674-31.766-147.84-82.538-198.826-20.502-20.48-20.502-53.546 0-73.814 20.246-20.48 53.334-20.48 73.814 0 69.758 69.76 113.064 166.186 113.064 272.64 0 106.24-42.88 202.454-112.426 272.214l-0.448 0.426c-20.46 20.48-53.312 20.48-73.792 0zM793.174 282.666c39.466 39.658 63.786 94.294 63.786 154.666s-24.342 114.986-63.786 154.666c-20.48 20.48-53.546 20.48-73.814 0-20.48-20.266-20.48-53.334 0-73.814 20.48-20.694 33.28-49.28 33.28-80.854s-12.8-60.16-33.28-80.854c-20.48-20.48-20.48-53.334 0-73.814 20.266-20.262 53.334-20.476 73.814 0.004z" />
<glyph unicode="&#xe92a;" glyph-name="music" d="M320 321.494c-25.6 12.586-54.614 19.84-85.334 19.84-106.026 0-192-85.974-192-192 0-106.048 85.974-192 192-192s192 85.952 192 192v426.666c0 23.466 19.2 42.666 42.666 42.666h362.666c23.466 0 42.666-19.2 42.666-42.666v-254.506c-25.598 12.586-54.632 19.84-85.33 19.84-106.048 0-192-85.974-192-192 0-106.048 85.952-192 192-192s192 85.952 192 192v721.066c0 26.026-20.908 46.934-46.934 46.934h-567.466c-26.028 0-46.934-20.908-46.934-46.934v-548.906z" />
<glyph unicode="&#xe92b;" glyph-name="microphone" d="M56.896 446.742c-42.454-19.84-60.8-70.166-40.938-112.618 19.84-42.454 70.186-60.586 112.426-40.96l191.786 89.366v-254.506c0-23.466-19.2-42.666-42.666-42.666h-117.334c-29.44 0-53.334-23.894-53.334-53.334s23.894-53.334 53.334-53.334h426.666c29.44 0 53.334 23.894 53.334 53.334s-23.894 53.334-53.334 53.334h-117.334c-23.466 0-42.666 19.2-42.666 42.666v304.214l72.106 33.706c66.346-60.8 165.974-79.36 253.226-39.466l139.968 63.766c114.326 52.266 163.84 185.6 110.506 297.814-53.334 112-189.226 160.448-303.786 108.16l-139.968-63.786c-86.378-39.658-135.894-125.226-131.84-213.12l-370.152-172.57zM768.15 757.376c0 29.44 23.894 53.334 53.334 53.334s53.334-23.894 53.334-53.334-23.894-53.334-53.334-53.334-53.334 23.894-53.334 53.334z" />
<glyph unicode="&#xe92c;" glyph-name="radio" d="M192 202.666c0-29.462 23.894-53.334 53.334-53.334s53.334 23.872 53.334 53.334c0 29.418-23.894 53.334-53.334 53.334s-53.334-23.914-53.334-53.334zM716.374 704l-528 231.658c-23.68 8.96-49.706-2.774-57.814-26.24-8.32-23.466 4.266-49.92 27.946-58.88l334.080-146.538h-407.252c-47.146 0-85.334-38.186-85.334-85.334v-576c0-47.168 38.186-85.334 85.334-85.334h768c47.146 0 85.334 38.166 85.334 85.334l-0.002 298.668h38.4c26.026 0 46.934 20.906 46.934 46.912v119.466c0 26.026-20.906 46.934-46.934 46.934h-38.4v64c0 47.146-38.186 85.334-85.334 85.334l-136.958-0.002zM153.6 597.334h631.466c26.026 0 46.934-20.906 46.934-46.934v-76.8c0-26.026-20.906-46.934-46.934-46.934h-422.4l-64 64-64-64h-81.066c-26.026 0-46.934 20.886-46.934 46.934v76.8c0 26.026 20.908 46.934 46.934 46.934zM725.334 288c0 29.418 23.894 53.334 53.334 53.334s53.334-23.914 53.334-53.334c0-29.462-23.894-53.334-53.334-53.334s-53.334 23.872-53.334 53.334zM106.666 202.666c0 76.586 62.080 138.666 138.666 138.666s138.666-62.080 138.666-138.666-62.078-138.666-138.664-138.666-138.668 62.080-138.668 138.666z" />
<glyph unicode="&#xe92d;" glyph-name="ipod1" d="M448 714.666c0-29.44 23.894-53.334 53.334-53.334s53.334 23.894 53.334 53.334-23.894 53.334-53.334 53.334-53.334-23.894-53.334-53.334zM448 266.666c0 29.44 23.894 53.334 53.334 53.334s53.334-23.894 53.334-53.334-23.894-53.332-53.334-53.332-53.334 23.892-53.334 53.332zM501.334 405.334c-76.586 0-138.666-62.080-138.666-138.666s62.080-138.666 138.666-138.666 138.666 62.080 138.666 138.666-62.080 138.666-138.666 138.666zM106.666 21.334c0-47.146 38.186-85.334 85.334-85.334h618.666c47.146 0 85.334 38.186 85.334 85.334v853.332c0 47.146-38.186 85.334-85.334 85.334h-618.666c-47.146 0-85.334-38.186-85.334-85.334v-853.332zM411.734 472.106c25.174 11.946 42.666 37.974 42.666 67.84 0 23.040-10.454 43.52-26.88 57.174-39.040 24.534-64.854 68.054-64.854 117.546 0 76.588 62.080 138.668 138.668 138.668s138.666-62.080 138.666-138.668c0-47.36-23.894-89.386-60.16-114.346-18.986-13.44-31.146-35.626-31.146-60.586 0-30.080 17.706-56.106 43.306-67.84l1.706-0.854c77.654-35.2 131.628-113.494 131.628-204.374 0-123.732-100.268-224-224-224s-224 100.268-224 224c0 91.968 55.252 170.88 134.4 205.44z" />
<glyph unicode="&#xe92e;" glyph-name="headphone" d="M0 53.334c0-29.44 23.894-53.334 53.334-53.334 25.814 0 47.36 18.326 52.266 42.666h1.066c0 23.466 19.2 42.666 42.666 42.666s42.666-19.2 42.666-42.666v-21.334c0-47.146 38.186-85.334 85.334-85.334h85.334c47.146 0 85.334 38.186 85.334 85.334v320.002c0 47.146-38.186 85.334-85.334 85.334h-85.334c-47.146 0-85.334-38.186-85.334-85.334v-21.334c0-23.466-19.2-42.666-42.666-42.666s-42.666 19.2-42.666 42.666v128c0 223.786 181.548 405.334 405.334 405.334s405.334-181.546 405.334-405.334v-128c0-23.466-19.2-42.666-42.666-42.666s-42.666 19.2-42.666 42.666v21.334c0 47.146-38.186 85.334-85.334 85.334h-85.334c-47.146 0-85.334-38.186-85.334-85.334v-320c0-47.146 38.186-85.334 85.334-85.334h85.334c47.146 0 85.334 38.186 85.334 85.334v21.334c0 23.466 19.2 42.666 42.666 42.666s42.666-19.2 42.666-42.666h1.066c4.886-24.342 26.454-42.666 52.266-42.666 29.44 0 53.334 23.894 53.334 53.334v394.664c0 282.88-229.12 512-512 512s-512-229.12-512-512v-394.666z" />
<glyph unicode="&#xe92f;" glyph-name="cassette" d="M682.666 448c0-35.414 28.586-64 64-64s64 28.586 64 64-28.586 64-64 64-64-28.586-64-64zM213.334 448c0-35.414 28.586-64 64-64s64 28.586 64 64-28.586 64-64 64-64-28.586-64-64zM604.586 490.666h-185.174c4.694-13.44 7.254-27.734 7.254-42.666s-2.56-29.226-7.254-42.666h185.174c-4.692 13.44-7.252 27.732-7.252 42.666s2.56 29.226 7.252 42.666zM0 149.334c0-47.146 38.186-85.334 85.334-85.334h853.334c47.146 0 85.334 38.186 85.334 85.334l-0.002 597.332c0 47.146-38.186 85.334-85.334 85.334h-853.332c-47.146 0-85.334-38.186-85.334-85.334v-597.332zM277.334 298.666c-82.56 0-149.334 66.774-149.334 149.334s66.774 149.334 149.334 149.334h469.334c82.56 0 149.334-66.774 149.334-149.334s-66.774-149.334-149.334-149.334h-469.334z" />
<glyph unicode="&#xe930;" glyph-name="broadcast" d="M384 501.334c0-45.654 26.026-85.12 64-104.534v-311.466c0-23.466-19.2-42.666-42.666-42.666h-117.334c-29.44 0-53.334-23.894-53.334-53.334s23.894-53.334 53.334-53.334h426.666c29.44 0 53.334 23.894 53.334 53.334s-23.894 53.332-53.334 53.332h-117.332c-23.466 0-42.666 19.2-42.666 42.666l-0.002 311.468c37.952 19.414 64 58.88 64 104.534 0 64.854-52.48 117.334-117.334 117.334s-117.332-52.482-117.332-117.334zM213.334 497.066c0-53.334 14.294-103.254 39.040-146.346l3.2-4.886c8.726-17.472 26.666-29.44 47.36-29.44 29.44 0 53.334 24.106 53.334 53.952 0 10.24-2.794 19.862-7.68 27.968l-5.782 9.814c-14.486 26.432-22.806 56.726-22.806 88.938 0 101.12 81.302 185.6 181.334 185.6s181.334-84.48 181.334-185.6c0-32.214-8.342-62.506-22.826-88.96l-5.76-9.814c-4.906-8.106-7.68-17.706-7.68-27.968 0-29.846 23.894-53.952 53.334-53.952 20.694 0 38.614 11.968 47.36 29.44l3.2 4.886c24.744 43.116 39.038 93.036 39.038 146.368 0 160.64-128.854 292.268-288 292.268s-288-131.628-288-292.268zM42.666 497.066c0-104.32 34.134-200.512 91.968-277.974l3.84-5.334c9.558-13.224 25.366-21.758 42.86-21.758 29.44 0 53.334 24.106 53.334 53.76 0 12.374-4.032 23.914-11.094 33.088l-4.054 5.546c-44.16 59.264-70.186 132.908-70.186 212.672 0 196.268 157.652 356.268 352 356.268 194.324 0 352-160 352-356.268 0-79.766-26.048-153.386-70.186-212.694l-4.054-5.546c-7.062-9.152-11.094-20.692-11.094-33.066 0-29.654 23.894-53.76 53.334-53.76 17.472 0 33.302 8.534 42.88 21.76l3.84 5.334c57.812 77.44 91.946 173.652 91.946 277.972 0 255.788-205.44 462.934-458.666 462.934s-458.668-207.146-458.668-462.934z" />
<glyph unicode="&#xe931;" glyph-name="broadcast1" d="M571.968 603.306l-65.088-64.64-260.694 260.694c-7.68 7.68-18.134 12.374-29.866 12.374-18.986 0-35.2-12.586-40.534-29.654l-2.346-7.68c-15.574-49.066-24.106-101.334-24.106-155.734 0-126.934 46.080-243.008 122.454-332.374l-8.106-10.666c-37.546-37.334-59.094-84.694-64.426-133.546-71.894-18.794-129.066-72.128-151.68-140.8 0 0-4.906-13.014-4.906-22.634 0-23.466 19.626-42.666 43.734-42.666h339.2c24.106 0 43.734 19.2 43.734 42.666 0 13.44-5.974 25.6-5.974 25.6-23.894 68.886-82.56 121.814-155.734 139.094 4.694 20.906 15.146 40.746 31.36 56.982l9.814 12.8c86.396-66.796 194.77-106.456 312.53-106.456 53.546 0 105.174 8.106 153.6 23.466 2.346 0.64 10.88 4.266 10.88 4.266 16.234 5.974 27.946 21.568 27.946 39.894 0 11.968-4.886 22.826-12.992 30.506l-6.634 6.402-253.014 253.226 64.832 64.854c20.502 20.48 20.502 53.546 0 74.026-20.458 20.48-53.526 20.48-73.984 0zM725.334 565.334c0-29.44 23.894-53.334 53.334-53.334s53.334 23.894 53.334 53.334l-0.216 10.666c-2.56 53.76-24.342 106.666-65.494 147.626-40.958 41.174-93.866 62.934-147.626 65.494l-10.666 0.214c-29.44 0-53.334-23.894-53.334-53.334s23.894-53.334 53.334-53.334c3.626 0 10.666-0.426 10.666-0.426 26.454-2.56 52.032-13.654 72.342-33.92 20.246-20.266 31.338-45.866 33.706-72.32 0 0 0.62-7.040 0.62-10.666zM896 565.334c0-29.44 23.894-53.334 53.334-53.334s53.334 23.894 53.334 53.334l-0.214 10.666c-2.56 97.494-40.96 194.134-115.414 268.374-74.24 74.452-170.88 112.852-268.374 115.412l-10.666 0.214c-29.44 0-53.334-23.894-53.334-53.334s23.894-53.332 53.334-53.332l10.666-0.214c70.186-2.56 139.52-30.72 193.066-84.054 53.334-53.546 81.494-122.88 84.054-193.066l0.214-10.666z" />
<glyph unicode="&#xe932;" glyph-name="calculator" d="M149.334 21.334c0-47.146 38.186-85.334 85.334-85.334h533.334c47.146 0 85.334 38.186 85.334 85.334l-0.002 853.332c0 47.146-38.186 85.334-85.334 85.334h-533.334c-47.146 0-85.332-38.186-85.332-85.334v-853.332zM302.934 853.334h396.8c26.026 0 46.932-20.908 46.932-46.934v-140.8c0-26.026-20.906-46.934-46.934-46.934h-396.798c-26.026 0-46.934 20.906-46.934 46.934v140.8c0 26.026 20.906 46.934 46.934 46.934zM256 480c0 29.44 23.894 53.334 53.334 53.334s53.334-23.894 53.334-53.334-23.894-53.334-53.334-53.334-53.334 23.894-53.334 53.334zM448 480c0 29.44 23.894 53.334 53.334 53.334s53.334-23.894 53.334-53.334-23.894-53.334-53.334-53.334-53.334 23.894-53.334 53.334zM640 480c0 29.44 23.894 53.334 53.334 53.334s53.334-23.894 53.334-53.334-23.894-53.334-53.334-53.334-53.334 23.894-53.334 53.334zM256 288c0 29.44 23.894 53.334 53.334 53.334s53.334-23.894 53.334-53.334-23.894-53.334-53.334-53.334-53.334 23.894-53.334 53.334zM448 288c0 29.44 23.894 53.334 53.334 53.334s53.334-23.894 53.334-53.334-23.894-53.334-53.334-53.334-53.334 23.894-53.334 53.334zM640 288c0 29.44 23.894 53.334 53.334 53.334s53.334-23.894 53.334-53.334-23.894-53.334-53.334-53.334-53.334 23.894-53.334 53.334zM256 96c0 29.44 23.894 53.334 53.334 53.334s53.334-23.894 53.334-53.334-23.894-53.334-53.334-53.334-53.334 23.894-53.334 53.334zM448 96c0 29.44 23.894 53.334 53.334 53.334s53.334-23.894 53.334-53.334-23.894-53.334-53.334-53.334-53.334 23.894-53.334 53.334zM640 96c0 29.44 23.894 53.334 53.334 53.334s53.334-23.894 53.334-53.334-23.894-53.334-53.334-53.334-53.334 23.894-53.334 53.334z" />
<glyph unicode="&#xe933;" glyph-name="gamepad" d="M192-64h512c29.44 0 56.342 11.968 75.52 31.36l108.374 107.946c18.154 18.368 29.44 43.734 29.44 72.32v727.040c0 47.146-38.186 85.334-85.334 85.334h-640c-47.146 0-85.334-38.186-85.334-85.334v-853.334c0-47.146 38.188-85.332 85.334-85.332zM260.266 853.334h503.466c26.028 0 46.934-20.908 46.934-46.934v-226.134c0-26.026-20.906-46.934-46.934-46.934l-503.466 0.002c-26.026 0-46.934 20.906-46.934 46.934l0.002 226.132c0 26.026 20.906 46.934 46.932 46.934zM384 360.534v-61.868h61.866c24.746 0 44.8-19.2 44.8-42.666s-20.054-42.666-44.8-42.666h-61.866v-61.866c0-24.746-19.2-44.8-42.666-44.8s-42.666 20.032-42.666 44.8l-0.002 61.866h-61.866c-24.746 0-44.8 19.2-44.8 42.666s20.054 42.666 44.8 42.666h61.866v61.866c0 24.746 19.2 44.8 42.666 44.8s42.668-20.030 42.668-44.798zM704 330.666c0 29.44 23.894 53.334 53.334 53.334s53.334-23.894 53.334-53.334-23.894-53.332-53.334-53.332-53.334 23.892-53.334 53.332zM597.334 202.666c0 29.44 23.894 53.334 53.334 53.334s53.334-23.894 53.334-53.334-23.896-53.332-53.336-53.332-53.332 23.892-53.332 53.332z" />
<glyph unicode="&#xe934;" glyph-name="gamepad1" d="M426.666 735.402c-61.226 59.946-203.946 84.054-284.374-2.134-78.718-84.052-142.292-286.698-142.292-477.866 0-230.634 193.28-262.634 298.666-149.334 61.014 65.706 66.774 75.968 106.666 128h213.334c40.106-52.032 45.654-62.294 106.666-128 105.366-113.302 298.666-81.302 298.666 149.334 0 191.168-63.574 393.814-142.294 477.866-80.426 86.186-222.934 62.080-284.374 2.134-23.68-23.040-85.334-32-85.334-32s-61.65 8.96-85.33 32zM341.334 594.602v-61.846h61.866c24.746 0 44.8-19.2 44.8-42.688 0-23.466-20.054-42.666-44.8-42.666h-61.866v-61.846c0-24.768-19.2-44.822-42.666-44.822s-42.666 20.032-42.666 44.822v61.846h-61.868c-24.746 0-44.8 19.2-44.8 42.666 0 23.488 20.054 42.688 44.8 42.688l61.866 0.002v61.846c0 24.746 19.2 44.8 42.666 44.8s42.668-20.054 42.668-44.802zM725.334 564.736c0 29.44 23.894 53.334 53.334 53.334s53.334-23.894 53.334-53.334-23.894-53.334-53.334-53.334-53.334 23.894-53.334 53.334zM618.666 436.736c0 29.462 23.894 53.334 53.334 53.334s53.334-23.872 53.334-53.334c0-29.418-23.894-53.334-53.334-53.334s-53.334 23.916-53.334 53.334z" />
<glyph unicode="&#xe935;" glyph-name="cog" d="M448 437.334c0 29.44 23.894 53.334 53.334 53.334s53.334-23.894 53.334-53.334-23.894-53.334-53.334-53.334-53.334 23.894-53.334 53.334zM501.334 576c-76.586 0-138.666-62.080-138.666-138.666s62.080-138.666 138.666-138.666 138.666 62.080 138.666 138.666-62.080 138.666-138.666 138.666zM142.080 335.36c8.106-28.8 19.626-56.106 34.134-81.472l-64-69.974c-18.326-18.346-18.326-48 0-66.346l69.334-69.334c18.346-18.326 48-18.326 66.346 0l69.974 64c25.366-14.506 52.694-26.026 81.472-34.134l5.994-95.166c0-26.026 20.906-46.934 46.934-46.934h98.134c26.026 0 46.934 20.906 46.934 46.934l5.952 95.146c28.822 8.106 56.128 19.626 81.494 34.134l69.974-64c18.346-18.326 48-18.326 66.346 0l69.334 69.334c18.326 18.346 18.326 48 0 66.346l-64 69.974c14.506 25.366 26.026 52.694 34.134 81.472l95.164 5.994c26.026 0 46.934 20.906 46.934 46.934v98.134c0 26.026-20.906 46.934-46.934 46.934l-95.146 5.974c-8.106 28.8-19.626 56.106-34.134 81.494l64 69.974c18.326 18.346 18.326 48 0 66.346l-69.334 69.334c-18.346 18.346-48 18.346-66.346 0l-69.974-64c-25.366 14.506-52.694 26.026-81.494 34.134l-5.972 95.142c0 26.026-20.908 46.932-46.934 46.932h-98.134c-26.026 0-46.932-20.906-46.932-46.932l-5.974-95.146c-28.8-8.106-56.106-19.626-81.472-34.134l-69.974 64c-18.346 18.346-48 18.346-66.346 0l-69.354-69.334c-18.326-18.346-18.326-48 0-66.346l64-69.974c-14.506-25.386-26.026-52.694-34.134-81.494l-95.146-5.972c-26.028 0-46.934-20.908-46.934-46.934v-98.134c0-26.026 20.906-46.932 46.934-46.932l95.146-5.974zM501.334 661.334c123.732 0 224-100.268 224-224s-100.268-224-224-224-224 100.266-224 224 100.266 224 224 224z" />
<glyph unicode="&#xe936;" glyph-name="shield" d="M192.214 706.986v-2.986c6.826-187.734 41.814-355.626 57.814-372.032 37.12-49.494 152.106-131.008 216.96-171.968 16-10.24 29.654-12.16 45.014-12.586 15.36 0.426 28.992 2.986 44.992 12.586 66.154 39.040 182.634 122.454 219.542 171.968 16.21 16.406 48.638 184.298 55.464 372.032l0.214 2.986c0 17.28-11.094 32.214-26.454 37.76-80.426 27.948-198.186 35.414-293.546 35.414-95.574 0-213.334-7.466-293.546-35.414-15.382-5.546-26.454-20.48-26.454-37.76zM0 830.080l0.214-4.694c10.88-300.372 59.072-564.48 85.12-590.72 59.734-79.382 250.666-202.666 353.92-270.080 24.534-16 48-27.968 72.746-28.586 24.746 0.618 48.214 12.586 72.746 28.586 103.254 67.414 294.188 190.7 353.92 270.080 26.026 26.24 74.24 290.346 85.12 590.72l0.214 4.694c0 27.734-17.92 51.84-42.666 60.586-129.494 44.8-315.308 69.334-469.334 69.334-154.048 0-339.862-24.534-469.334-69.334-24.746-8.746-42.666-32.852-42.666-60.586zM103.466 760.32c0 22.186 14.294 41.174 33.92 48.214 102.4 35.412 252.8 44.8 374.614 44.8s272.214-9.386 374.634-44.8c19.626-7.040 33.92-26.026 33.92-48.214l-0.234-3.626c-8.746-237.868-49.92-453.76-70.614-474.668-47.382-62.72-198.422-163.392-280.106-216.726-19.414-12.606-37.974-22.206-57.6-22.634-19.626 0.426-38.186 10.026-57.6 22.634-81.706 53.334-232.746 154.006-280.106 216.726-20.694 20.908-61.868 236.8-70.636 474.668l-0.192 3.626z" />
<glyph unicode="&#xe937;" glyph-name="skull" d="M256 21.334c0-47.146 38.186-85.334 85.334-85.334h320c47.146 0 85.334 38.186 85.334 85.334v24.96c0 20.032 13.866 36.906 32.618 41.366 102.42 15.806 180.714 104.34 180.714 211.006 0 48-15.786 92.374-42.666 128v145.92c0 213.974-186.24 387.414-416 387.414s-416-173.44-416-387.414v-145.92c-26.88-35.626-42.666-80-42.666-128 0-106.666 78.294-195.2 180.694-211.008 18.774-4.458 32.64-21.334 32.64-41.366l-0.002-24.958zM213.334 448c0 58.88 47.786 106.666 106.666 106.666s106.666-47.786 106.666-106.666-47.786-106.666-106.666-106.666-106.666 47.786-106.666 106.666zM576 448c0 58.88 47.786 106.666 106.666 106.666s106.666-47.786 106.666-106.666-47.786-106.666-106.666-106.666-106.666 47.786-106.666 106.666zM396.138 220.16l75.114 75.094c16.64 16.64 43.52 16.64 60.16 0l75.094-75.094c16.214-16.214 16.214-42.454 0-58.666s-42.454-16.214-58.666 0l-46.506 46.506-46.528-46.506c-16.192-16.214-42.432-16.214-58.666 0-16.172 16.212-16.172 42.474-0.002 58.666z" />
<glyph unicode="&#xe938;" glyph-name="bug" d="M0 266.666c0-29.44 23.894-53.332 53.334-53.332s53.332 23.892 53.332 53.332v49.066c0 26.028 20.908 46.934 46.934 46.934h18.774c-1.068-9.812-1.708-20.032-1.708-30.506 0-41.6 7.894-81.302 22.186-117.782l-64.852-69.76c-12.16-12.992-21.334-41.792-21.334-59.284v-96c0-29.44 23.894-53.334 53.334-53.334s53.334 23.894 53.334 53.334v65.302c0 9.578 2.774 18.326 7.68 25.792l32.64 34.794c40.96-46.294 87.68-93.462 156.8-112.214 1.494-0.662 3.2-1.088 4.906-1.494 3.626-1.088 7.466-1.514 11.306-1.514 23.466 0 42.666 19.2 42.666 42.666l0.002 362.668c0 23.466 19.2 42.666 42.666 42.666s42.666-19.2 42.666-42.666v-362.666c0-23.466 19.2-42.666 42.666-42.666 4.48 0 8.96 0.618 13.226 2.134l5.334 1.494c66.154 18.326 113.92 65.706 154.432 111.574l32.662-34.794c4.908-7.45 7.68-16.196 7.68-25.776v-65.3c0-29.44 23.894-53.334 53.334-53.334s53.334 23.894 53.334 53.334v96c0 17.494-9.174 46.294-21.334 59.286l-64.854 69.782c14.294 36.478 22.188 76.158 22.188 117.758 0 10.454-0.618 20.694-1.706 30.506h18.774c26.026 0 46.934-20.906 46.934-46.934v-49.066c0-29.44 23.894-53.334 53.334-53.334s53.334 23.894 53.334 53.334l-0.004 96c0 58.88-47.786 106.666-106.666 106.666h-100.48c-9.6 17.92-20.48 35.2-31.552 52.48l89.364 96.854c12.16 13.014 21.334 43.52 21.334 64v96c0 29.44-23.894 53.334-53.334 53.334s-53.332-23.894-53.332-53.334v-70.4c0-9.6-2.774-18.346-7.658-25.814l-57.386-61.44c-23.916 46.508-41.624 99.628-41.624 168.322 0 79.574-54.4 146.346-128 165.334v-101.334c0-23.466-19.2-42.666-42.666-42.666s-42.666 19.2-42.666 42.666v101.332c-73.6-18.986-128-85.76-128-165.332 0-68.48-17.92-121.386-41.814-167.894l-57.174 61.014c-4.906 7.466-7.68 16.212-7.68 25.812v70.4c0 29.44-23.892 53.334-53.332 53.334s-53.334-23.894-53.334-53.334v-96c0-20.48 9.174-50.986 21.334-64l88.96-96.426c-11.306-17.28-21.974-34.774-31.574-52.906h-100.054c-58.88 0-106.666-47.786-106.666-106.666v-96.002z" />
<glyph unicode="&#xe939;" glyph-name="mine" d="M501.334 938.666c-29.44 0-53.334-23.892-53.334-53.332v-78.294c-29.654-4.266-58.24-12.16-85.334-22.826l-39.040 67.84c-14.934 25.386-47.36 34.134-72.96 19.414s-34.346-47.36-19.626-72.746l39.254-68.054c-23.040-18.346-43.946-39.254-62.294-62.294l-68.054 39.254c-25.386 14.72-58.026 5.974-72.746-19.626s-5.974-58.026 19.414-72.96l67.84-39.254c-10.666-26.88-18.56-55.466-22.826-85.12l-78.294-0.002c-29.44 0-53.334-23.892-53.334-53.332s23.894-53.334 53.334-53.334h78.294c4.266-29.674 12.16-58.24 22.826-85.12l-67.84-39.254c-25.386-14.934-34.134-47.36-19.414-72.96s47.36-34.326 72.746-19.626l68.054 39.254c18.346-23.040 39.254-43.968 62.294-62.294l-39.254-68.032c-14.72-25.386-5.974-58.048 19.626-72.746 25.6-14.72 58.026-5.974 72.96 19.414l39.040 67.818c27.094-10.666 55.68-18.56 85.334-22.826v-78.294c0-29.44 23.894-53.334 53.334-53.334s53.334 23.894 53.334 53.334v78.294c29.674 4.266 58.24 12.16 85.334 22.826l39.040-67.84c14.912-25.386 47.36-34.154 72.96-19.414 25.6 14.698 34.326 47.36 19.626 72.746l-39.254 68.032c23.040 18.326 43.968 39.254 62.294 62.294l68.032-39.254c25.386-14.698 58.048-5.974 72.746 19.626 14.72 25.6 5.974 58.026-19.414 72.96l-67.84 39.254c10.666 26.88 18.56 55.466 22.826 85.12h78.294c29.44 0 53.334 23.894 53.334 53.334s-23.872 53.354-53.312 53.354h-78.294c-4.266 29.654-12.16 58.24-22.826 85.12l67.84 39.254c25.386 14.934 34.154 47.36 19.414 72.96-14.698 25.6-47.36 34.346-72.746 19.626l-68.032-39.254c-18.326 23.040-39.254 43.946-62.294 62.294l39.254 68.054c14.698 25.386 5.974 58.026-19.626 72.746s-58.048 5.974-72.96-19.414l-39.064-67.838c-27.094 10.666-55.658 18.56-85.334 22.826v78.294c0 29.44-23.892 53.332-53.332 53.332zM362.666 320c0 58.88 47.786 106.666 106.666 106.666s106.666-47.786 106.666-106.666-47.786-106.666-106.666-106.666-106.666 47.786-106.666 106.666zM576 522.666c0 41.174 33.494 74.666 74.666 74.666s74.666-33.494 74.666-74.666c0-41.174-33.494-74.666-74.666-74.666s-74.666 33.494-74.666 74.666zM405.334 629.334c0 29.44 23.894 53.334 53.334 53.334s53.334-23.894 53.334-53.334-23.896-53.334-53.336-53.334-53.332 23.894-53.332 53.334z" />
<glyph unicode="&#xe93a;" glyph-name="earth" d="M0 448c0-282.88 229.12-512 512-512s512 229.12 512 512-229.12 512-512 512-512-229.12-512-512zM106.666 448c0 32.854 3.84 64.854 11.306 95.36l95.362-95.36-21.334-128 85.334-85.334v-117.12c-103.254 73.388-170.668 194.112-170.668 330.454zM418.774 842.454c29.866 7.252 61.012 10.88 93.226 10.88 35.626 0 70.186-4.694 103.040-13.226l-17.706-29.442 21.334-21.334h64l17.706 17.706c14.912-7.894 28.992-16.426 42.666-26.026l-39.040-13.012-42.666-42.666 42.666-21.334v-21.334h-42.666v-42.666c0 0 29.44-21.334 64-21.334 33.92 0 18.774 46.72 42.666 64 24.106 17.28 53.334 13.44 53.334 13.44l13.866-3.626c26.026-34.346 46.698-72.746 60.8-114.346v-2.134c0 0-30.080 21.334-85.334 21.334s-106.666-21.334-106.666-21.334-60.16-17.494-64-64c-6.634-80 21.334-106.666 21.334-106.666l106.666-64v-207.574c-69.76-56.96-158.934-91.094-256-91.094-45.866 0-89.814 7.466-130.986 21.546l109.652 255.788-21.334 106.666c0 0-84.694 106.666-128 106.666s-64-64-64-64l-42.666 85.334 128 85.334 64 170.666-7.892 31.788z" />
<glyph unicode="&#xe93b;" glyph-name="globe" d="M0 437.334c0-276.908 224.426-501.334 501.334-501.334 276.906 0 501.332 224.426 501.332 501.334 0 276.906-224.426 501.332-501.332 501.332-276.908 0-501.334-224.426-501.334-501.332zM106.666 437.334c0 25.6 2.346 50.56 7.040 74.666h102.4c-1.92-21.12-2.772-42.454-2.772-64s0.854-42.88 2.774-64h-106.028c-2.346 17.494-3.414 35.2-3.414 53.334zM150.826 618.666c31.146 60.374 77.44 111.574 133.974 148.694-22.4-47.146-39.894-96.854-52.054-148.694h-81.92zM444.8 827.946l3.2 0.428v-209.708h-104.96c21.12 76.374 55.894 147.2 101.76 209.28zM554.666 828.374l2.986-0.426c45.866-62.080 80.854-132.906 101.974-209.28l-104.96-0.002v209.708zM717.654 767.36c56.534-37.12 103.040-88.32 134.186-148.694h-82.134c-11.946 51.84-29.674 101.548-52.052 148.694zM888.96 512c4.694-24.106 7.040-49.066 7.040-74.666 0-18.134-1.302-35.84-3.626-53.334h-105.6c1.706 21.12 2.56 42.454 2.56 64s-0.854 42.88-2.56 64h102.186zM862.294 277.334c-33.494-75.306-89.814-138.24-160.214-179.84 29.866 56.106 52.694 116.458 67.626 179.84h92.588zM300.586 97.494c-70.4 41.6-126.72 104.532-160.212 179.84h92.586c14.934-63.382 37.76-123.968 67.626-179.84zM323.2 512h124.8v-128h-124.8c-2.134 21.12-3.2 42.454-3.2 64s1.066 42.88 3.2 64zM554.666 512h124.8c2.134-21.12 3.2-42.454 3.2-64s-1.066-42.88-3.2-64h-124.8v128zM343.040 277.334h104.96v-213.334c-47.36 63.146-83.414 135.254-104.96 213.334zM554.666 277.334h104.96c-21.546-78.080-57.6-150.186-104.96-213.334v213.334z" />
<glyph unicode="&#xe93c;" glyph-name="planet" d="M44.374 915.606c-69.334-69.334-44.586-215.894 49.92-380.16-5.974-28.16-8.96-57.366-8.96-87.446 0-235.734 190.934-426.666 426.666-426.666 30.080 0 59.286 3.008 87.466 8.96 164.266-94.506 310.826-119.254 380.16-49.92s44.586 215.872-49.92 380.16c5.952 28.138 8.96 57.386 8.96 87.466 0 235.734-190.934 426.666-426.666 426.666-30.080 0-59.306-3.008-87.466-8.96-164.268 94.486-310.828 119.232-380.16 49.9zM895.146 51.414c-257.92-82.582-907.114 655.764-774.826 788.244 30.72 30.528 95.574 17.302 176-23.466-35.626-20.906-67.626-46.72-95.552-76.586 90.006-225.708 380.352-513.9 606.698-599.446 29.226 27.926 54.422 60.16 74.666 95.552 33.708-73.174 42.242-138.218 13.014-184.298z" />
<glyph unicode="&#xe93d;" glyph-name="battery" d="M149.334 21.334c0-47.146 38.186-85.334 85.334-85.334h533.334c47.146 0 85.334 38.186 85.334 85.334l-0.002 768c0 47.146-38.186 85.334-85.334 85.334h-106.666v38.398c0 26.028-20.908 46.934-46.934 46.934h-226.134c-26.026 0-46.932-20.906-46.932-46.934v-38.4h-106.666c-47.148 0-85.334-38.186-85.334-85.332v-768z" />
<glyph unicode="&#xe93e;" glyph-name="battery-low" d="M149.334 21.334c0-47.146 38.186-85.334 85.334-85.334h533.334c47.146 0 85.334 38.186 85.334 85.334l-0.002 768c0 47.146-38.186 85.334-85.334 85.334h-106.666v38.398c0 26.028-20.908 46.934-46.934 46.934h-226.134c-26.026 0-46.932-20.906-46.932-46.934v-38.4h-106.666c-47.148 0-85.334-38.186-85.334-85.332v-768zM302.934 213.334h396.8c26.026 0 46.934-20.906 46.934-46.934v-76.8c0-26.026-20.906-46.934-46.934-46.934h-396.8c-26.026 0-46.934 20.906-46.934 46.934v76.8c0 26.026 20.906 46.934 46.934 46.934z" />
<glyph unicode="&#xe93f;" glyph-name="battery1" d="M149.334 21.334c0-47.146 38.186-85.334 85.334-85.334h533.334c47.146 0 85.334 38.186 85.334 85.334l-0.002 768c0 47.146-38.186 85.334-85.334 85.334h-106.666v38.398c0 26.028-20.908 46.934-46.934 46.934h-226.134c-26.026 0-46.932-20.906-46.932-46.934v-38.4h-106.666c-47.148 0-85.334-38.186-85.334-85.332v-768zM302.934 213.334h396.8c26.026 0 46.934-20.906 46.934-46.934v-76.8c0-26.026-20.906-46.934-46.934-46.934h-396.8c-26.026 0-46.934 20.906-46.934 46.934v76.8c0 26.026 20.906 46.934 46.934 46.934zM302.934 490.666h396.8c26.026 0 46.934-20.906 46.934-46.934v-76.8c0-26.026-20.906-46.934-46.934-46.934l-396.8 0.002c-26.026 0-46.934 20.906-46.934 46.934v76.8c0 26.026 20.906 46.932 46.934 46.932z" />
<glyph unicode="&#xe940;" glyph-name="battery-full" d="M149.334 21.334c0-47.146 38.186-85.334 85.334-85.334h533.334c47.146 0 85.334 38.186 85.334 85.334l-0.002 768c0 47.146-38.186 85.334-85.334 85.334h-106.666v38.398c0 26.028-20.908 46.934-46.934 46.934h-226.134c-26.026 0-46.932-20.906-46.932-46.934v-38.4h-106.666c-47.148 0-85.334-38.186-85.334-85.332v-768zM302.934 768h396.8c26.026 0 46.934-20.906 46.934-46.934v-76.8c0-26.026-20.906-46.934-46.934-46.934l-396.8 0.002c-26.026 0-46.934 20.906-46.934 46.934v76.8c0 26.026 20.906 46.932 46.934 46.932zM302.934 213.334h396.8c26.026 0 46.934-20.906 46.934-46.934v-76.8c0-26.026-20.906-46.934-46.934-46.934h-396.8c-26.026 0-46.934 20.906-46.934 46.934v76.8c0 26.026 20.906 46.934 46.934 46.934zM302.934 490.666h396.8c26.026 0 46.934-20.906 46.934-46.934v-76.8c0-26.026-20.906-46.934-46.934-46.934l-396.8 0.002c-26.026 0-46.934 20.906-46.934 46.934v76.8c0 26.026 20.906 46.932 46.934 46.932z" />
<glyph unicode="&#xe941;" glyph-name="folder" d="M0 106.666c0-47.146 38.186-85.334 85.334-85.334h853.334c47.146 0 85.334 38.186 85.334 85.334l-0.002 576c0 47.146-38.186 85.334-85.334 85.334h-426.666v38.4c0 26.026-20.906 46.934-46.934 46.934h-226.132c-26.028 0-46.934-20.908-46.934-46.934v-635.734c0-23.466-19.2-42.666-42.666-42.666s-42.666 19.2-42.666 42.666l-0.002 544c0 29.44-23.892 53.334-53.332 53.334s-53.334-23.894-53.334-53.334v-608z" />
<glyph unicode="&#xe942;" glyph-name="search" d="M632.576 661.376c46.080-10.666 82.752-49.92 93.418-92.8 3.648-20.054 21.12-35.2 42.048-35.2 23.466 0 42.666 19.2 42.666 42.666 0 30.72-25.814 77.44-61.014 112.426-34.56 34.134-75.734 58.24-109.654 58.24-23.466 0-42.666-19.84-42.666-43.306 0.002-20.884 15.148-38.4 35.202-42.026zM46.122 102.016c-33.066-33.046-33.066-86.826 0-119.872 33.066-33.088 86.826-33.088 119.68 0l245.098 244.906c57.194-35.67 124.586-56.342 197.12-56.342 206.294 0 373.334 167.040 373.334 373.334s-167.040 373.334-373.334 373.334-373.334-167.040-373.334-373.334c0-72.32 20.714-139.946 56.342-197.12l-244.906-244.906zM341.376 544.042c0 147.2 119.488 266.666 266.666 266.666 147.2 0 266.666-119.466 266.666-266.666s-119.466-266.666-266.666-266.666c-147.178 0.022-266.666 119.488-266.666 266.666z" />
<glyph unicode="&#xe943;" glyph-name="zoomout" d="M501.398 597.376c-29.44 0-53.334-23.894-53.334-53.334s23.894-53.334 53.334-53.334h213.354c29.418 0 53.334 23.894 53.334 53.334s-23.914 53.334-53.334 53.334h-213.354zM46.144 102.016c-33.088-33.046-33.088-86.826 0-119.872 33.066-33.088 86.826-33.088 119.658 0l245.12 244.906c57.174-35.67 124.608-56.342 197.142-56.342 206.294 0 373.334 167.040 373.334 373.334s-167.040 373.334-373.334 373.334c-206.314 0-373.354-167.040-373.354-373.334 0-72.32 20.694-139.946 56.32-197.12l-244.886-244.906zM341.398 544.042c0 147.2 119.466 266.666 266.688 266.666 147.2 0 266.666-119.466 266.666-266.666s-119.466-266.666-266.666-266.666c-147.222 0.022-266.688 119.488-266.688 266.666z" />
<glyph unicode="&#xe944;" glyph-name="zoomin" d="M501.398 597.376c-29.44 0-53.334-23.894-53.334-53.334s23.894-53.334 53.334-53.334h53.354v-53.334c0-29.44 23.872-53.312 53.334-53.312 29.418 0 53.334 23.872 53.334 53.312v53.334h53.334c29.418 0 53.334 23.894 53.334 53.334s-23.914 53.334-53.334 53.334h-53.334v53.334c0 29.44-23.914 53.334-53.334 53.334-29.462 0-53.334-23.894-53.334-53.334v-53.334h-53.354zM46.144 102.016c-33.088-33.046-33.088-86.826 0-119.872 33.066-33.088 86.826-33.088 119.658 0l245.12 244.906c57.174-35.67 124.608-56.342 197.142-56.342 206.294 0 373.334 167.040 373.334 373.334s-167.040 373.334-373.334 373.334c-206.314 0-373.354-167.040-373.354-373.334 0-72.32 20.694-139.946 56.32-197.12l-244.886-244.906zM341.398 544.042c0 147.2 119.466 266.666 266.688 266.666 147.2 0 266.666-119.466 266.666-266.666s-119.466-266.666-266.666-266.666c-147.222 0.022-266.688 119.488-266.688 266.666z" />
<glyph unicode="&#xe945;" glyph-name="binocular" d="M0 21.334c0-47.146 38.186-85.334 85.334-85.334h277.334c47.146 0 85.334 38.186 85.334 85.334l-0.002 341.332h128v-341.334c0-47.146 38.186-85.334 85.334-85.334h277.334c47.146 0 85.334 38.186 85.334 85.334l-0.002 554.668c0 47.146-38.186 85.334-85.334 85.334h-42.666v192h10.666c29.44 0 53.334 23.892 53.334 53.332s-23.894 53.334-53.334 53.334h-277.334c-29.438 0-53.332-23.894-53.332-53.334s23.894-53.332 53.334-53.332h10.666v-192h-256v192h10.666c29.44 0 53.334 23.892 53.334 53.332s-23.894 53.334-53.334 53.334h-277.334c-29.438 0-53.332-23.894-53.332-53.334s23.894-53.332 53.334-53.332h10.666v-192h-42.666c-47.146 0-85.334-38.186-85.334-85.334v-554.666zM554.666 469.334h-85.334c-23.466 0-42.666 19.2-42.666 42.666s19.2 42.666 42.666 42.666h85.334c23.466 0 42.666-19.2 42.666-42.666s-19.198-42.666-42.666-42.666z" />
<glyph unicode="&#xe946;" glyph-name="location" d="M448 629.334c0 29.44 23.894 53.334 53.334 53.334s53.334-23.894 53.334-53.334-23.894-53.334-53.334-53.334-53.334 23.894-53.334 53.334zM501.334 768c-76.586 0-138.666-62.080-138.666-138.666s62.080-138.666 138.666-138.666c76.586 0 138.666 62.080 138.666 138.666s-62.080 138.666-138.666 138.666zM170.666 635.306c0-217.6 256.64-385.066 277.334-635.306v-10.666c0-29.44 23.894-53.334 53.334-53.334s53.334 23.894 53.334 53.334l-0.002 10.666c21.952 250.24 277.334 417.706 277.334 635.306 0 179.414-148.032 324.694-330.666 324.694-182.614 0-330.668-145.28-330.668-324.694zM501.334 853.334c123.732 0 224-100.268 224-224s-100.268-224-224-224-224 100.266-224 224 100.266 224 224 224z" />
<glyph unicode="&#xe947;" glyph-name="pin" d="M277.334 488.534l-157.866-159.36c-7.894-7.68-12.802-18.54-12.802-30.508 0-23.466 18.986-42.666 42.24-42.666h299.094v-266.666c0-29.44 23.894-53.334 53.334-53.334s53.334 23.894 53.334 53.334l-0.002 266.666h320.426c23.254 0 42.24 19.2 42.24 42.666 0 11.734-4.714 22.4-12.374 30.080l-158.292 160v364.588h32c29.44 0 53.334 23.892 53.334 53.332s-23.894 53.334-53.334 53.334h-533.334c-29.438 0-53.332-23.894-53.332-53.334s23.894-53.332 53.334-53.332h32v-364.8zM469.334 810.666v-277.334c0-23.466-19.2-42.666-42.666-42.666s-42.666 19.2-42.666 42.666l-0.002 277.334c0 23.466 19.2 42.666 42.666 42.666s42.668-19.198 42.668-42.666z" />
<glyph unicode="&#xe948;" glyph-name="file" d="M192 960c-47.146 0-85.334-38.186-85.334-85.334v-853.334c0-47.146 38.186-85.334 85.334-85.334h640c47.146 0 85.334 38.186 85.334 85.334v641.708c0 28.586-11.286 53.974-29.44 72.32l-193.708 193.28c-19.178 19.414-46.080 31.36-75.52 31.36h-426.666zM490.666 810.666c0 23.466 19.2 42.666 42.666 42.666s42.666-19.2 42.666-42.666v-160c0-17.706 14.294-32 32-32h160.002c23.466 0 42.666-19.2 42.666-42.666s-19.2-42.666-42.666-42.666h-192c-47.146 0-85.334 38.186-85.334 85.334v191.998z" />
<glyph unicode="&#xe949;" glyph-name="tag" d="M725.354 714.688c0-29.44 23.894-53.334 53.334-53.334s53.334 23.894 53.334 53.334-23.894 53.334-53.334 53.334-53.334-23.894-53.334-53.334zM352.448-39.232c32.854-33.088 86.186-33.088 119.254 0l521.386 517.974c20.886 20.886 31.36 48.426 30.934 75.946v299.52c0 58.454-47.382 105.814-105.814 105.814h-299.52c-27.52 0.448-55.040-10.026-75.968-30.934l-517.952-521.408c-33.088-33.046-33.088-86.378 0-119.254l327.68-327.658zM640.022 714.688c0 76.586 62.080 138.666 138.666 138.666s138.666-62.080 138.666-138.666-62.080-138.666-138.666-138.666-138.666 62.080-138.666 138.666z" />
<glyph unicode="&#xe94a;" glyph-name="quote" d="M0 42.666c0-47.146 38.186-85.334 85.334-85.334h277.334c47.146 0 85.334 38.186 85.334 85.334l-0.002 341.334c0 47.146-38.186 85.334-85.334 85.334h-136.96c-23.68 0-42.666 19.2-42.666 42.666 0 7.68 1.92 13.014 1.92 13.014 31.146 103.254 109.846 186.026 210.774 222.72l0.426 0.426c30.506 13.014 51.84 43.306 51.84 78.506 0 47.146-38.186 85.334-85.334 85.334-11.52 0-22.4-2.346-32.426-6.4l-3.84-1.494c-190.934-74.452-326.4-260.052-326.4-477.44v-384zM554.666 42.666c0-47.146 38.186-85.334 85.334-85.334h277.334c47.146 0 85.334 38.186 85.334 85.334l-0.002 341.334c0 47.146-38.186 85.334-85.334 85.334h-136.96c-23.68 0-42.666 19.2-42.666 42.666 0 7.894 1.92 13.014 1.92 13.014 31.146 103.254 109.846 186.026 210.774 222.72l0.426 0.426c30.508 13.014 51.84 43.306 51.84 78.506 0 47.146-38.186 85.334-85.334 85.334-11.52 0-22.4-2.346-32.426-6.4l-3.84-1.494c-190.932-74.452-326.4-260.052-326.4-477.44v-384z" />
<glyph unicode="&#xe94b;" glyph-name="attachment" d="M701.888 640l-373.334-375.658c-12.394-12.374-32.448-12.374-44.822 0-12.374 12.352-12.374 32.618 0 44.992l437.59 440.34c18.134 18.326 47.552 18.326 65.686 0l98.56-99.2c18.134-18.134 18.134-47.786 0-66.134l-437.546-440.34c-78.294-78.698-205.226-78.698-283.734 0-78.314 78.934-78.314 206.698 0 285.674l373.334 375.658c20.694 20.694 20.694 54.4 0 75.114-20.48 20.694-53.974 20.694-74.666 0l-373.334-375.68c-119.488-120.342-119.488-315.52 0-435.84 119.68-120.342 313.6-120.342 433.066 0l470.4 473.366c41.194 41.6 41.194 108.822 0 150.4l-164.266 165.12c-41.174 41.6-108.16 41.6-149.334 0l-470.4-473.386c-53.546-53.76-53.546-141.206 0-195.178 53.76-53.974 140.586-53.974 194.154 0l373.334 375.68c20.694 20.694 20.694 54.4 0 75.094-20.714 20.672-53.994 20.672-74.688-0.022z" />
<glyph unicode="&#xe94c;" glyph-name="bookmark" d="M298.666 960c-47.146 0-85.334-38.186-85.334-85.334v-896c0-23.466 19.2-42.666 42.666-42.666 11.734 0 22.4 4.694 30.080 12.374l110.506 109.866c16.64 16.832 43.734 16.832 60.374 0l110.294-109.866c7.682-7.68 18.348-12.374 30.082-12.374 23.466 0 42.666 19.2 42.666 42.666v832c0 24.746 19.2 42.666 42.666 42.666h53.334c29.44 0.002 53.334 23.894 53.334 53.334s-23.894 53.334-53.334 53.334h-437.334z" />
<glyph unicode="&#xe94d;" glyph-name="bookmark1" d="M85.334 874.666v-853.334c0-47.146 38.186-85.334 85.334-85.334h714.666c29.44 0 53.334 23.894 53.334 53.334s-23.894 53.334-53.334 53.334h-650.668c-23.466 0-42.666 19.2-42.666 42.666s19.2 42.666 42.666 42.666h618.666c47.146 0 85.334 38.186 85.334 85.334v661.334c0 47.146-38.186 85.334-85.334 85.334h-298.666v-383.786c0-5.546-2.134-11.094-6.186-15.36-8.32-8.32-21.974-8.32-30.294 0-5.546 5.78-91.52 77.226-91.52 77.226s-85.974-71.466-91.52-77.226c-8.32-8.32-21.974-8.32-30.294 0-4.052 4.266-6.186 9.812-6.186 15.36v383.786h-128c-47.146 0-85.332-38.186-85.332-85.334z" />
<glyph unicode="&#xe94e;" glyph-name="newspaper" d="M0 85.334c0-47.146 38.186-85.334 85.334-85.334h853.334c47.146 0 85.334 38.186 85.334 85.334l-0.002 704c0 47.146-38.186 85.334-85.334 85.334l-661.332-0.002c-47.146 0-85.334-38.186-85.334-85.334v-640c0-23.466-19.2-42.666-42.666-42.666s-42.666 19.2-42.666 42.666l-0.002 565.334c0 29.44-23.892 53.334-53.332 53.334s-53.334-23.894-53.334-53.334v-629.332zM597.334 721.066v-162.134c0-26.026-20.906-46.934-46.934-46.934h-204.8c-26.026 0-46.934 20.906-46.934 46.934v162.134c0 26.028 20.908 46.934 46.934 46.934h204.8c26.026 0 46.934-20.906 46.934-46.934zM874.666 341.334h-533.332c-23.466 0-42.666 19.2-42.666 42.666s19.2 42.666 42.666 42.666h533.334c23.466 0 42.666-19.2 42.666-42.666s-19.2-42.666-42.668-42.666zM874.666 170.666h-533.332c-23.466 0-42.666 19.2-42.666 42.666s19.2 42.666 42.666 42.666h533.334c23.466 0 42.666-19.2 42.666-42.666s-19.2-42.666-42.668-42.666zM874.666 682.666h-149.334c-23.466 0-42.666 19.2-42.666 42.666s19.2 42.666 42.666 42.666h149.334c23.466 0 42.666-19.2 42.666-42.666s-19.198-42.666-42.666-42.666zM874.666 512h-149.334c-23.466 0-42.666 19.2-42.666 42.666s19.2 42.666 42.666 42.666h149.334c23.466 0 42.666-19.2 42.666-42.666s-19.198-42.666-42.666-42.666z" />
<glyph unicode="&#xe94f;" glyph-name="notebook" d="M0 21.334c0-47.146 38.186-85.334 85.334-85.334h853.334c47.146 0 85.334 38.186 85.334 85.334l-0.002 746.666c0 47.146-38.186 85.334-85.334 85.334h-85.334l0.002 53.332c0 29.44-23.894 53.334-53.334 53.334s-53.334-23.894-53.334-53.334v-53.332h-85.334l0.002 53.332c0 29.44-23.894 53.334-53.334 53.334s-53.334-23.894-53.334-53.334v-53.332h-85.334l0.002 53.332c0 29.44-23.894 53.334-53.334 53.334s-53.334-23.894-53.334-53.334v-53.332h-85.334l0.002 53.332c0 29.44-23.894 53.334-53.334 53.334s-53.334-23.894-53.334-53.334v-53.332h-85.332c-47.148 0-85.334-38.188-85.334-85.334v-746.666zM153.6 746.666h17.066v-74.666c0-29.44 23.894-53.334 53.334-53.334s53.334 23.894 53.334 53.334v74.666h85.334v-74.666c0-29.44 23.894-53.334 53.334-53.334s53.334 23.894 53.334 53.334l-0.002 74.666h85.334v-74.666c0-29.44 23.894-53.334 53.334-53.334s53.334 23.894 53.334 53.334l-0.002 74.666h85.334v-74.666c0-29.44 23.894-53.334 53.334-53.334s53.334 23.894 53.334 53.334l-0.002 74.666h17.066c26.026 0 46.934-20.906 46.934-46.934v-226.134c0-26.026-20.906-46.934-46.934-46.934l-716.8 0.002c-26.026 0-46.934 20.908-46.934 46.934v226.134c0 26.026 20.908 46.932 46.934 46.932z" />
<glyph unicode="&#xe950;" glyph-name="addressbook" d="M853.334-64c47.146 0 85.334 38.186 85.334 85.334v106.666h38.4c26.026 0 46.934 20.906 46.934 46.934l-0.002 226.132c0 26.026-20.906 46.934-46.934 46.934h-38.4v85.334h38.4c26.026 0 46.934 20.906 46.934 46.934v226.132c0 26.026-20.906 46.934-46.934 46.934h-38.4v21.332c0 47.146-38.186 85.334-85.334 85.334h-661.332c-47.146 0-85.334-38.186-85.334-85.334v-85.334l-53.332 0.002c-29.44 0-53.334-23.894-53.334-53.334s23.894-53.334 53.334-53.334h53.332v-85.334l-53.332 0.002c-29.44 0-53.334-23.894-53.334-53.334s23.894-53.334 53.334-53.334h53.332v-85.334l-53.332 0.002c-29.44 0-53.334-23.894-53.334-53.334s23.894-53.334 53.334-53.334h53.332v-85.334l-53.332 0.002c-29.44 0-53.334-23.894-53.334-53.334s23.894-53.334 53.334-53.334h53.332v-85.334c0-47.146 38.186-85.334 85.334-85.334l661.334 0.002zM213.334 89.6v17.066h74.666c29.44 0 53.334 23.894 53.334 53.334s-23.894 53.334-53.334 53.334h-74.666v85.334h74.666c29.44 0 53.334 23.894 53.334 53.334s-23.894 53.332-53.334 53.332h-74.666v85.334h74.666c29.44 0 53.334 23.894 53.334 53.334s-23.894 53.332-53.334 53.332h-74.666v85.334h74.666c29.44 0 53.334 23.894 53.334 53.334s-23.894 53.332-53.334 53.332h-74.666v17.066c0 26.026 20.906 46.934 46.932 46.934h140.8c26.028 0 46.934-20.908 46.934-46.934v-716.8c0-26.026-20.906-46.934-46.934-46.934h-140.8c-26.026 0-46.932 20.908-46.932 46.934z" />
<glyph unicode="&#xe951;" glyph-name="clipboard" d="M650.666 448h-298.666c-29.44 0-53.334-23.894-53.334-53.334s23.894-53.334 53.334-53.334h298.666c29.44 0 53.334 23.894 53.334 53.334s-23.894 53.334-53.334 53.334zM650.666 256h-298.666c-29.44 0-53.334-23.894-53.334-53.334s23.894-53.334 53.334-53.334h298.666c29.44 0 53.334 23.894 53.334 53.334s-23.894 53.334-53.334 53.334zM85.334 21.334c0-47.146 38.186-85.334 85.334-85.334h661.334c47.146 0 85.334 38.186 85.334 85.334l-0.002 725.332c0 47.146-38.186 85.334-85.334 85.334h-173.866c-14.698 72.96-79.36 128-156.8 128s-142.080-55.040-156.8-128h-173.868c-47.146 0-85.334-38.186-85.334-85.334l0.002-725.332zM238.934 725.334h102.4v-38.4c0-26.026 20.906-46.934 46.934-46.934h226.134c26.026 0 46.934 20.906 46.934 46.934l-0.002 38.4h102.4c26.026 0 46.934-20.906 46.934-46.934v-588.8c0-26.026-20.906-46.934-46.934-46.934h-524.8c-26.028 0-46.934 20.908-46.934 46.934v588.8c0 26.026 20.906 46.934 46.934 46.934zM448 800c0 29.44 23.894 53.334 53.334 53.334s53.332-23.894 53.332-53.334-23.892-53.334-53.332-53.334-53.334 23.894-53.334 53.334z" />
<glyph unicode="&#xe952;" glyph-name="clipboard1" d="M85.334 21.334c0-47.146 38.186-85.334 85.334-85.334h661.334c47.146 0 85.334 38.186 85.334 85.334l-0.002 725.332c0 47.146-38.186 85.334-85.334 85.334h-173.866c-14.698 72.96-79.36 128-156.8 128s-142.080-55.040-156.8-128h-173.868c-47.146 0-85.334-38.186-85.334-85.334l0.002-725.332zM238.934 725.334h102.4v-38.4c0-26.026 20.906-46.934 46.934-46.934h226.134c26.026 0 46.934 20.906 46.934 46.934l-0.002 38.4h102.4c26.026 0 46.934-20.906 46.934-46.934v-588.8c0-26.026-20.906-46.934-46.934-46.934h-524.8c-26.028 0-46.934 20.908-46.934 46.934v588.8c0 26.026 20.906 46.934 46.934 46.934zM448 800c0 29.44 23.894 53.334 53.334 53.334s53.332-23.894 53.332-53.334-23.892-53.334-53.332-53.334-53.334 23.894-53.334 53.334z" />
<glyph unicode="&#xe953;" glyph-name="board" d="M501.334 277.974c-23.894 30.294-44.8 45.226-96.64 50.326-9.386 1.706-16.214 9.814-16.214 19.414 0 7.040 23.040 28.16 22.806 28.374 23.914 24.126 36.714 63.166 36.714 93.246 0 46.698-41.366 85.334-96 85.334-55.68 0-96-38.634-96-85.334 0-30.294 12.586-69.546 36.48-93.674 0 0 23.040-20.886 23.040-27.946 0-10.026-7.68-18.56-17.92-19.84-50.794-5.12-71.274-20.054-94.934-49.92-6.634-8.746-10.454-26.026-10.666-35.2v-40.106c0-17.706 14.698-32 32.854-32h254.294c18.154 0 32.854 14.294 32.854 32v40.106c-0.216 9.214-3.864 26.472-10.668 35.22zM757.334 512h-106.666c-29.44 0-53.334-23.894-53.334-53.334s23.894-53.334 53.334-53.334h106.666c29.44 0 53.334 23.894 53.334 53.334s-23.894 53.334-53.334 53.334zM757.334 320h-106.666c-29.44 0-53.334-23.894-53.334-53.334s23.894-53.334 53.334-53.334h106.666c29.44 0 53.334 23.894 53.334 53.334s-23.894 53.334-53.334 53.334zM0 64c0-47.146 38.186-85.334 85.334-85.334h853.334c47.146 0 85.334 38.186 85.334 85.334l-0.002 682.666c0 47.146-38.186 85.334-85.334 85.334h-256v38.4c0 26.026-20.906 46.934-46.932 46.934h-247.468c-26.026 0-46.932-20.908-46.932-46.934v-38.4h-256c-47.146 0-85.334-38.186-85.334-85.334v-682.666zM153.6 725.334h187.734v-38.4c0-26.026 20.906-46.934 46.934-46.934h247.466c26.026 0 46.934 20.906 46.934 46.934l-0.002 38.4h187.734c26.026 0 46.934-20.906 46.934-46.934v-546.134c0-26.026-20.906-46.934-46.934-46.934l-716.8 0.002c-26.026 0-46.934 20.906-46.934 46.932v546.134c0 26.026 20.908 46.934 46.934 46.934z" />
<glyph unicode="&#xe954;" glyph-name="pencil" d="M118.634 528.918c-20.886-20.886-30.934-50.774-36.032-81.066l-81.322-384.428c-11.52-68.288 56.96-136.982 126.102-126.314l384.874 80.234c28.16 5.098 58.666 13.866 79.574 34.774l407.68 408.128c32.64 32.832 32.64 85.952 0 118.806l-356.054 356.48c-32.854 32.64-85.974 32.64-118.634 0l-406.188-406.614zM509.888 118.678l-199.254-38.208-165.12 165.334 37.952 199.488 296.768 297.174c16.426 16.448 42.88 16.448 59.306 0 16.448-16.426 16.448-43.094 0-59.52l-274.368-274.774c-20.48-20.48-20.48-53.782 0-74.218 20.48-20.502 53.546-20.502 74.026 0l274.582 274.774c16.448 16.426 42.88 16.426 59.306 0 16.448-16.448 16.448-42.902 0-59.306l-274.368-274.774c-20.48-20.48-20.48-53.782 0-74.24 20.48-20.48 53.568-20.48 74.026 0l274.582 274.774c16.234 16.234 42.902 16.234 59.328 0 16.426-16.426 16.426-43.094 0-59.498l-296.766-297.006z" />
<glyph unicode="&#xe955;" glyph-name="pen" d="M493.014 370.326l-361.6-361.58c-7.68-7.68-12.374-18.346-12.374-30.080 0-23.466 18.986-42.666 42.666-42.666 6.186 0 11.946 1.302 17.28 3.626 0 0 602.454 261.12 609.302 264.342 14.058 6.378 24.96 18.752 29.226 34.134l97.494 351.36 19.626-19.414c20.458-20.48 53.546-20.48 74.006 0 20.502 20.48 20.502 53.568 0 74.026l-300.608 300.566c-20.458 20.48-53.546 20.48-74.006 0-20.502-20.48-20.502-53.568 0-74.026l19.414-19.414-352-97.92c-15.36-4.502-27.734-15.574-34.134-30.080l-263.892-608.874c-2.134-5.1-3.414-10.668-3.414-16.62 0-23.68 19.2-42.666 42.666-42.666 12.16 0 23.040 4.906 30.72 12.992l360.96 360.96c-4.906 12.608-7.68 26.048-7.68 40.342 0 58.88 47.786 106.666 106.666 106.666s106.666-47.786 106.666-106.666-47.786-106.666-106.666-106.666c-14.292-0.002-27.732 2.772-40.318 7.658z" />
<glyph unicode="&#xe956;" glyph-name="user" d="M889.366 222.080c-61.846 80.854-141.654 122.666-276.458 136.106-24.342 4.886-42.666 26.454-42.666 52.054 0 18.752 60.138 74.88 59.712 75.286 62.078 64.234 95.38 168.554 95.38 248.768 0 124.586-100.268 225.706-224 225.706s-224-101.12-224-225.706c0-80.64 32.426-185.6 95.146-249.814 0 0 59.946-55.488 59.946-74.218 0-27.114-20.48-49.706-46.934-52.906-132.054-13.866-210.986-55.466-272.214-135.254-17.704-23.062-27.304-69.356-27.944-94.102 0.214-6.4 0-106.666 0-106.666 0-47.146 38.186-85.334 85.334-85.334h661.334c47.146 0 85.334 38.186 85.334 85.334 0 0-0.214 100.266 0 106.666-0.622 24.746-10.242 71.040-27.97 94.080z" />
<glyph unicode="&#xe957;" glyph-name="user1" d="M889.366 222.080c-44.8 58.454-98.986 96.426-176.618 117.952l-72.748-254.698c0-23.466-19.2-42.666-42.666-42.666s-42.666 19.2-42.666 42.666v202.666c0 29.44-23.894 53.334-53.334 53.334s-53.334-23.894-53.334-53.334v-202.666c0-23.466-19.2-42.666-42.666-42.666s-42.666 19.2-42.666 42.666l-72.746 254.698c-77.654-21.76-131.84-59.498-176.64-117.952-17.708-23.040-27.308-69.334-27.948-94.080v-106.666c0-47.146 38.186-85.334 85.334-85.334h661.334c47.146 0 85.334 38.186 85.334 85.334v106.666c-0.642 24.746-10.242 71.040-27.97 94.080zM501.334 426.666c143.786 0 224 183.040 224 307.628s-100.268 225.706-224 225.706-224-101.12-224-225.706 77.652-307.628 224-307.628z" />
<glyph unicode="&#xe958;" glyph-name="user2" d="M889.366 222.080c-24.96 32.618-52.886 58.88-86.4 79.552-51.82-114.966-167.446-194.966-301.632-194.966s-249.814 80-301.674 194.986c-33.28-20.694-61.418-46.934-86.378-79.552-17.708-23.060-27.33-69.354-27.948-94.1 0.214-6.4 0-106.666 0-106.666 0-47.146 38.186-85.334 85.334-85.334h661.334c47.146 0 85.334 38.186 85.334 85.334 0 0-0.214 100.266 0 106.666-0.642 24.746-10.242 71.040-27.97 94.080zM385.472 357.334c-17.898-1.92-34.986-4.266-51.178-7.040-18.56-4.694-32.64-21.546-32.64-41.6 0-8.32 2.346-15.766 6.4-22.4 44.8-57.388 114.752-94.294 193.28-94.294 76.586 0 144.854 34.986 189.866 89.814 5.952 7.254 9.366 16.64 9.366 26.88 0 20.906-15.146 38.4-35.2 42.026-16.618 3.008-34.134 5.568-52.886 7.488-24.106 4.458-42.24 21.526-42.24 47.126 0 23.466 17.472 41.366 40.96 44.374 2.326 0.426 7.872 0.618 7.872 0.618 114.794 8.128 192.874 31.382 244.266 75.754 7.062 7.466 11.328 17.494 11.328 28.586 0 22.186-16.854 40.32-38.4 42.454-63.36 12.8-110.932 65.28-110.932 128.214v8.96c0 124.586-100.268 225.706-224 225.706s-224-101.12-224-225.706v-8.96c0-62.934-47.574-115.414-110.934-128.214-21.546-2.134-38.4-20.266-38.4-42.454 0-11.094 4.266-21.12 11.286-28.586 51.648-44.374 129.706-67.626 244.714-75.754 3.414 0 6.634-0.214 9.6-0.618 23.872-3.414 38.806-20.48 38.806-44.374 0.020-27.308-20.438-44.8-46.934-48z" />
<glyph unicode="&#xe959;" glyph-name="trashcan" d="M906.666 746.666h-138.666v128c0 47.146-38.186 85.334-85.334 85.334h-341.332c-47.146 0-85.334-38.186-85.334-85.334v-128h-138.666c-29.44 0-53.334-23.892-53.334-53.332s23.894-53.334 53.334-53.334h32v-618.666c0-47.146 38.186-85.334 85.334-85.334h554.666c47.146 0 85.334 38.186 85.334 85.334l-0.002 618.666h32c29.44 0 53.334 23.894 53.334 53.334s-23.894 53.332-53.334 53.332zM661.334 746.666h-298.668v59.734c0 26.026 20.908 46.934 46.934 46.934h204.8c26.026 0 46.934-20.908 46.934-46.934v-59.734zM362.666 597.334v-512c0-23.466-19.2-42.666-42.666-42.666s-42.666 19.2-42.666 42.666v512c0 23.466 19.2 42.666 42.666 42.666s42.666-19.2 42.666-42.666zM554.666 597.334v-512c0-23.466-19.2-42.666-42.666-42.666s-42.666 19.2-42.666 42.666v512c0 23.466 19.2 42.666 42.666 42.666s42.666-19.2 42.666-42.666zM746.666 597.334v-512c0-23.466-19.2-42.666-42.666-42.666s-42.666 19.2-42.666 42.666v512c0 23.466 19.2 42.666 42.666 42.666s42.666-19.2 42.666-42.666z" />
<glyph unicode="&#xe95a;" glyph-name="cart" d="M533.334 160c0 18.774-3.2 36.694-9.194 53.334h124.822c-5.762-16.64-8.962-34.56-8.962-53.334 0-88.342 71.658-160 160-160 88.32 0 160 71.658 160 160 0 88.32-71.68 160-160 160h-352c-23.466 0-42.666 19.2-42.666 42.666s19.2 42.666 42.666 42.666h366.934c38.614 0 71.872 22.634 87.018 55.466 5.782 12.376 116.288 264.322 116.288 264.322 2.986 6.848 5.76 13.654 5.76 21.546 0 23.466-19.2 42.666-42.666 42.666l-666.048 0.002-17.92 55.254c-8.3 29.652-31.552 51.412-62.7 51.412h-181.332c-29.44 0-53.334-23.894-53.334-53.334s23.894-53.332 53.334-53.332h112c18.986 0 34.986-12.374 40.534-29.226l90.026-460.138c-49.26-27.116-82.56-79.81-82.56-139.97 0-88.342 71.658-160 160-160 88.32 0 160 71.658 160 160zM426.666 160c0-29.44-23.894-53.334-53.334-53.334s-53.332 23.894-53.332 53.334 23.894 53.334 53.334 53.334 53.332-23.894 53.332-53.334zM853.334 160c0-29.44-23.894-53.334-53.334-53.334s-53.334 23.894-53.334 53.334 23.894 53.334 53.334 53.334 53.334-23.894 53.334-53.334z" />
<glyph unicode="&#xe95b;" glyph-name="bag" d="M0 21.334c0-47.146 38.186-85.334 85.334-85.334h853.334c47.146 0 85.334 38.186 85.334 85.334l-0.002 533.332c0 47.146-38.186 85.334-85.334 85.334h-85.334v96c0.002 123.734-100.266 224-223.998 224-50.56 0-97.066-16.64-134.4-44.8-30.294 14.934-64.214 23.466-100.268 23.466-123.732 0-224-100.266-224-224l0.214-74.666h-85.546c-47.146 0-85.334-38.186-85.334-85.334v-533.332zM746.666 640h-234.452l-0.214 96c0 64.854 52.48 117.334 117.334 117.334s117.332-52.48 117.332-117.334v-96zM405.546 640h-128l-0.212 74.666c0 64.854 52.48 117.334 117.332 117.334 10.454 0 20.694-1.302 30.294-4.032-12.586-27.968-19.626-59.114-19.626-91.968l0.212-96zM405.334 501.334c0 29.44 23.894 53.334 53.334 53.334s53.334-23.894 53.334-53.334-23.896-53.334-53.336-53.334-53.332 23.894-53.332 53.334zM746.666 501.334c0 29.44 23.894 53.334 53.334 53.334s53.334-23.894 53.334-53.334-23.894-53.334-53.334-53.334-53.334 23.894-53.334 53.334zM192 490.666v-405.334c0-23.466-19.2-42.666-42.666-42.666s-42.666 19.2-42.666 42.666l-0.002 405.334c0 23.466 19.2 42.666 42.666 42.666s42.668-19.198 42.668-42.666z" />
<glyph unicode="&#xe95c;" glyph-name="suitcase" d="M768 704v128c0 47.146-38.186 85.334-85.334 85.334h-341.332c-47.146 0-85.334-38.186-85.334-85.334v-128h-170.666c-47.146 0-85.334-38.186-85.334-85.334v-554.666c0-47.146 38.186-85.334 85.334-85.334h853.334c47.146 0 85.334 38.186 85.334 85.334l-0.002 554.666c0 47.146-38.186 85.334-85.334 85.334h-170.666zM409.6 810.666h204.8c26.026 0 46.934-20.906 46.934-46.932v-59.734h-298.668v59.734c0 26.026 20.908 46.932 46.934 46.932zM256 554.666v-426.666c0-23.466-19.2-42.666-42.666-42.666s-42.666 19.2-42.666 42.666l-0.002 426.666c0 23.466 19.2 42.666 42.666 42.666s42.668-19.198 42.668-42.666zM853.334 554.666v-426.666c0-23.466-19.2-42.666-42.666-42.666s-42.666 19.2-42.666 42.666l-0.002 426.666c0 23.466 19.2 42.666 42.666 42.666s42.668-19.198 42.668-42.666z" />
<glyph unicode="&#xe95d;" glyph-name="card" d="M565.334 362.666h-298.666c-29.44 0-53.334-23.894-53.334-53.334s23.894-53.334 53.334-53.334h298.666c29.44 0 53.334 23.894 53.334 53.334s-23.894 53.334-53.334 53.334zM0 128c0-47.146 38.186-85.334 85.334-85.334h853.334c47.146 0 85.334 38.186 85.334 85.334l-0.002 640c0 47.146-38.186 85.334-85.334 85.334h-853.332c-47.148 0-85.334-38.188-85.334-85.334v-640zM153.6 746.666h716.8c26.026 0 46.934-20.906 46.934-46.934v-59.732h-810.668v59.734c0 26.026 20.908 46.932 46.934 46.932zM106.666 469.334h810.666v-273.066c0-26.026-20.906-46.934-46.934-46.934h-716.798c-26.026 0-46.934 20.906-46.934 46.932v273.068z" />
<glyph unicode="&#xe95e;" glyph-name="book" d="M0 64c0-47.146 38.186-85.334 85.334-85.334h768c47.146 0 85.334 38.186 85.334 85.334v128h38.4c26.026 0 46.934 20.906 46.934 46.934l-0.002 226.132c0 26.026-20.906 46.934-46.934 46.934h-38.4v128c0 47.146-38.186 85.334-85.334 85.334h-703.998c-23.466 0-42.666 19.2-42.666 42.666s19.2 42.666 42.666 42.666h629.334c29.438 0 53.332 23.894 53.332 53.334s-23.894 53.334-53.334 53.334h-693.332c-47.148 0-85.334-38.188-85.334-85.334v-768zM725.334 352c0 29.44 23.894 53.334 53.334 53.334s53.334-23.894 53.334-53.334-23.896-53.334-53.336-53.334-53.332 23.894-53.332 53.334z" />
<glyph unicode="&#xe95f;" glyph-name="gift" d="M362.666 896.342c-83.414 83.414-216.96 84.906-300.16 1.472-83.414-83.178-83.414-218.432 0-301.654 41.6-41.578 95.574-62.506 149.974-62.506h-165.546c-26.026 0-46.934-20.906-46.934-46.934v-98.112c0-26.048 20.906-46.954 46.934-46.954h38.4v-320c0-47.126 38.186-85.334 85.334-85.334h682.666c47.146 0 85.334 38.208 85.334 85.334v320h38.4c26.026 0 46.934 20.906 46.934 46.954v98.112c0 26.026-20.906 46.934-46.934 46.934h-165.782c54.634 0 108.608 20.906 150.186 62.506 83.434 83.2 83.434 218.454 0 301.654-83.178 83.456-216.726 81.94-300.138-1.472l-149.334-149.334-149.334 149.334zM622.506 709.888l112.64 112.64c41.814 41.6 109.226 41.6 151.040 0 41.6-41.814 41.6-109.226 0-151.040-20.886-20.694-48.234-31.146-75.52-31.146h-155.094c-23.488 0-42.666 19.2-42.666 42.666 0 10.262 3.628 19.414 9.6 26.88zM288.854 822.528l109.44-109.44c7.658-7.894 12.374-18.346 12.374-30.080 0-23.466-19.2-42.666-42.666-42.666h-154.668c-27.306 0-54.634 10.454-75.52 31.146-41.6 41.814-41.6 109.226 0 151.040 41.812 41.6 109.226 41.6 151.040 0zM405.334 533.674h213.334v-443.712c0-26.048-20.906-46.954-46.934-46.954h-119.466c-26.026 0-46.934 20.906-46.934 46.954v443.712z" />
<glyph unicode="&#xe960;" glyph-name="lamp" d="M341.334 170.666v-64.214c0-29.866 12.374-56.982 32.214-76.374l62.72-62.72c41.814-41.814 109.654-41.814 151.466 0l62.72 62.72c19.84 19.392 32.214 46.506 32.214 76.374l-0.002 42.882h-189.866c-24.746 0-44.8 19.2-44.8 42.666s20.032 42.666 44.8 42.666h195.414c29.226 164.48 165.12 232.748 165.12 393.174 0 183.446-152.748 332.16-341.334 332.16s-341.334-148.714-341.334-332.16c0-181.142 170.668-245.142 170.668-457.174zM568.534 768c-20.054 3.626-35.2 21.12-35.2 42.026 0 23.446 19.2 43.308 42.666 43.308 33.92 0 75.094-24.106 109.654-58.24 35.2-34.988 61.012-81.728 61.012-112.428 0-23.466-19.2-42.666-42.666-42.666-20.906 0-38.4 15.146-42.048 35.2-10.666 42.88-47.318 82.134-93.418 92.8z" />
<glyph unicode="&#xe961;" glyph-name="settings" d="M0 85.334c0-82.56 66.774-149.334 149.334-149.334 41.174 0 79.574 15.574 106.666 42.666l272.214 272.426 72.96-72.96c-9.814-35.84-0.426-75.946 27.968-104.512l105.814-105.814c42.218-42.048 109.846-42.454 151.466-0.854s41.194 109.206-0.854 151.466l-105.814 105.814c-28.586 28.374-68.694 37.76-104.512 27.946l-72.96 72.768 46.912 46.912c99.84-25.174 209.92 1.088 287.786 77.226 53.546 52.48 83.008 119.040 87.040 187.946v3.626c-0.020 23.238-19.22 42.010-42.9 42.010-11.754 0-22.422-4.714-30.314-12.16l-12.566-12.374-43.094-42.238c-27.114-26.454-65.706-42.026-107.306-42.026-41.366 0-77.866 18.134-104.96 44.8-26.666 27.094-44.992 63.786-44.992 105.174 0 41.6 15.552 80.214 42.026 107.306l42.22 43.092 12.374 12.566c7.444 7.892 12.158 18.56 12.158 30.314 0 23.68-18.772 42.88-42.048 42.88h-3.626c-68.886-4.032-135.466-33.494-187.946-87.040-76.138-77.866-102.186-187.968-77.014-287.574l-47.126-47.146-196.906 197.12v53.974l-128 64-64-64 64-128h53.76l197.12-196.906-272.214-272.428c-27.092-27.094-42.666-65.494-42.666-106.666zM106.666 96c0 29.44 23.894 53.334 53.334 53.334s53.334-23.894 53.334-53.334-23.894-53.334-53.334-53.334-53.334 23.894-53.334 53.334z" />
<glyph unicode="&#xe962;" glyph-name="support" d="M38.186 254.294c107.094-261.76 405.974-387.008 667.52-280.106 261.76 107.114 387.008 405.952 280.106 667.52-107.114 261.758-405.972 386.986-667.518 280.106-261.76-107.116-386.988-405.974-280.108-667.52zM140.374 296.106l136.96 55.894c26.454-64.854 76.8-112.64 136.534-137.814l-57.174-136.32c-94.72 39.68-174.294 115.606-216.32 218.24zM664.106 76.374l-56.106 136.96c64.854 26.454 112.618 76.8 137.814 136.746l136.32-57.386c-39.68-94.742-115.628-174.294-218.028-216.32zM883.626 600.106l-136.96-56.106c-26.454 64.854-76.8 112.618-136.534 137.814l57.174 136.32c94.742-39.68 174.294-115.628 216.32-218.028zM360.106 819.626l55.894-136.96c-64.854-26.454-112.64-76.8-137.814-136.746l-136.32 57.366c39.68 94.74 115.628 174.314 218.24 216.34zM375.040 392.106c-30.934 75.52 5.334 161.92 81.066 192.854 75.52 30.934 161.942-5.334 192.854-80.854 30.934-75.734-5.334-162.154-80.854-193.066-75.732-30.934-162.132 5.334-193.066 81.066z" />
<glyph unicode="&#xe963;" glyph-name="medicine" d="M0 21.334c0-47.146 38.186-85.334 85.334-85.334h853.334c47.146 0 85.334 38.186 85.334 85.334l-0.002 640c0 47.146-38.186 85.334-85.334 85.334h-170.666v127.998c0 47.146-38.186 85.334-85.334 85.334h-341.332c-47.146 0-85.334-38.186-85.334-85.334v-128h-170.666c-47.146 0-85.334-38.186-85.334-85.334v-639.998zM661.334 746.666h-298.668v59.734c0 26.026 20.908 46.934 46.934 46.934h204.8c26.026 0 46.934-20.908 46.934-46.934v-59.734zM302.934 448h102.4v102.4c0 26.026 20.906 46.934 46.934 46.934h119.466c26.026 0 46.934-20.906 46.934-46.934l-0.002-102.4h102.4c26.026 0 46.934-20.906 46.934-46.934v-119.466c0-26.026-20.906-46.934-46.934-46.934h-102.4v-102.4c0-26.026-20.906-46.934-46.934-46.934h-119.466c-26.026 0-46.934 20.906-46.934 46.934l0.002 102.4h-102.4c-26.026 0-46.934 20.906-46.934 46.934v119.466c0 26.028 20.906 46.934 46.934 46.934z" />
<glyph unicode="&#xe964;" glyph-name="cone" d="M0-10.666c0-29.44 23.894-53.334 53.334-53.334h896c29.44 0 53.334 23.894 53.334 53.334s-23.894 53.332-53.334 53.332h-117.334l-280.342 881.708c-7.444 20.928-27.072 35.626-50.324 35.626s-42.88-14.698-50.346-35.414l-280.322-881.92h-117.332c-29.44 0-53.334-23.892-53.334-53.332zM309.334 149.334l44.8 149.334h294.4l44.8-149.334h-384zM411.734 490.666l51.2 170.666h76.8l51.2-170.666h-179.2z" />
<glyph unicode="&#xe965;" glyph-name="locked" d="M234.666 682.666v-149.334l-64 0.002c-47.146 0-85.334-38.186-85.334-85.334v-426.666c0-47.146 38.186-85.334 85.334-85.334h682.666c47.146 0 85.334 38.186 85.334 85.334v426.666c0 47.146-38.186 85.334-85.334 85.334h-64v149.334c0 153.174-124.16 277.334-277.334 277.334-153.172-0.002-277.332-124.162-277.332-277.336zM341.334 533.334v149.334c0 94.294 76.374 170.666 170.666 170.666s170.666-76.374 170.666-170.666v-149.334h-341.332zM426.666 298.666c0 47.146 38.186 85.334 85.334 85.334s85.334-38.186 85.334-85.334c0-30.080-15.574-56.534-39.040-71.68 0 0 8.342-50.346 17.706-109.654 0-17.706-14.294-32-32-32h-64c-17.706 0-32 14.294-32 32l17.706 109.654c-23.466 15.148-39.040 41.6-39.040 71.68z" />
<glyph unicode="&#xe966;" glyph-name="unlocked" d="M85.334 21.334c0-47.146 38.186-85.334 85.334-85.334h682.666c47.146 0 85.334 38.186 85.334 85.334l-0.002 426.666c0 47.146-38.186 85.334-85.334 85.334h-511.998v149.334c0 94.294 76.374 170.666 170.666 170.666s170.666-76.374 170.666-170.666v-10.666c0-29.44 23.894-53.334 53.334-53.334s53.334 23.894 53.334 53.334v10.664c0 153.174-124.16 277.334-277.334 277.334-153.194 0-277.334-124.16-277.334-277.334v-149.334l-64 0.002c-47.146 0-85.334-38.186-85.334-85.334l0.002-426.666zM426.666 298.666c0 47.146 38.186 85.334 85.334 85.334s85.334-38.186 85.334-85.334c0-30.080-15.574-56.534-39.040-71.68 0 0 8.342-50.346 17.706-109.654 0-17.706-14.294-32-32-32h-64c-17.706 0-32 14.294-32 32l17.706 109.654c-23.466 15.148-39.040 41.6-39.040 71.68z" />
</font>
</defs>
</svg>
